osu file format v14

[General]
AudioFilename: pocotan - Summer Wing 2013.mp3
AudioLeadIn: 1500
PreviewTime: 125417
Countdown: 0
SampleSet: Normal
StackLeniency: 0.7
Mode: 1
LetterboxInBreaks: 0
WidescreenStoryboard: 0

[Editor]
Bookmarks: 192167
DistanceSpacing: 1.1
BeatDivisor: 6
GridSize: 16
TimelineZoom: 3.399998

[Metadata]
Title:Summer Wing 2013
TitleUnicode:Summer Wing 2013
Artist:pocotan
ArtistUnicode:pocotan
Creator:PatZar
Version:Collab Oni
Source:Love Live! School idol project
Tags:natsuiro egao de 1, 2, jump! u's collab collaboration marathon genocide patzar nishiumi remix funkot
BeatmapID:698794
BeatmapSetID:312983

[Difficulty]
HPDrainRate:5
CircleSize:4
OverallDifficulty:5
ApproachRate:9
SliderMultiplier:1.4
SliderTickRate:1

[Events]
//Background and Video events
0,0,"summerwing.png",0,0
//Break Periods
//Storyboard Layer 0 (Background)
//Storyboard Layer 1 (Fail)
//Storyboard Layer 2 (Pass)
//Storyboard Layer 3 (Foreground)
//Storyboard Sound Samples

[TimingPoints]
168,333.333333333333,4,1,0,80,1,0
85417,-121.951219512195,4,1,0,80,0,0
93417,-117.647058823529,4,1,0,80,0,0
94751,-111.111111111111,4,1,0,80,0,0
95834,-108.695652173913,4,1,0,80,0,0
95917,-106.382978723404,4,1,0,80,0,0
96001,-104.166666666667,4,1,0,80,0,0
96084,-102.040816326531,4,1,0,80,0,0
96167,-100,4,1,0,80,0,0
128167,-100,4,1,0,80,0,1
149501,-100,4,1,0,80,0,0
213501,-100,4,1,0,80,0,1
234834,-100,4,1,0,80,0,0
266834,-100,4,1,0,80,0,1
288167,-100,4,1,0,80,0,0

[HitObjects]
256,192,168,5,4,0:0:0:0:
256,192,501,1,8,0:0:0:0:
256,192,667,1,0,0:0:0:0:
256,192,1001,1,0,0:0:0:0:
256,192,1167,1,8,0:0:0:0:
256,192,1501,1,0,0:0:0:0:
256,192,1834,1,8,0:0:0:0:
256,192,2001,1,0,0:0:0:0:
256,192,2334,1,0,0:0:0:0:
256,192,2501,1,8,0:0:0:0:
256,192,2667,1,0,0:0:0:0:
256,192,2834,1,0,0:0:0:0:
256,192,3167,1,8,0:0:0:0:
256,192,3334,1,0,0:0:0:0:
256,192,3667,1,0,0:0:0:0:
256,192,3834,1,8,0:0:0:0:
256,192,4167,1,0,0:0:0:0:
256,192,4501,1,8,0:0:0:0:
256,192,4667,1,0,0:0:0:0:
256,192,5001,1,0,0:0:0:0:
256,192,5167,1,8,0:0:0:0:
256,192,5334,1,0,0:0:0:0:
256,192,5501,1,0,0:0:0:0:
256,192,5834,1,8,0:0:0:0:
256,192,6001,1,0,0:0:0:0:
256,192,6334,1,0,0:0:0:0:
256,192,6501,1,8,0:0:0:0:
256,192,6834,1,0,0:0:0:0:
256,192,7167,1,8,0:0:0:0:
256,192,7334,1,0,0:0:0:0:
256,192,7667,1,0,0:0:0:0:
256,192,7834,1,8,0:0:0:0:
256,192,8001,1,0,0:0:0:0:
256,192,8167,1,0,0:0:0:0:
256,192,8334,1,8,0:0:0:0:
256,192,8501,1,8,0:0:0:0:
256,192,8667,1,0,0:0:0:0:
256,192,8834,1,8,0:0:0:0:
256,192,9001,1,8,0:0:0:0:
256,192,9167,1,0,0:0:0:0:
256,192,9334,1,8,0:0:0:0:
256,192,9501,1,0,0:0:0:0:
256,192,9584,1,8,0:0:0:0:
256,192,9667,1,8,0:0:0:0:
256,192,9751,1,0,0:0:0:0:
256,192,9834,1,8,0:0:0:0:
256,192,10001,1,0,0:0:0:0:
256,192,10167,1,8,0:0:0:0:
256,192,10334,1,0,0:0:0:0:
256,192,10417,1,8,0:0:0:0:
256,192,10584,1,0,0:0:0:0:
256,192,10667,1,8,0:0:0:0:
256,192,10834,1,4,0:0:0:0:
256,192,11167,1,8,0:0:0:0:
256,192,11334,1,0,0:0:0:0:
256,192,11667,1,0,0:0:0:0:
256,192,11834,1,8,0:0:0:0:
256,192,12167,1,0,0:0:0:0:
256,192,12501,1,8,0:0:0:0:
256,192,12667,1,0,0:0:0:0:
256,192,13001,1,0,0:0:0:0:
256,192,13167,1,8,0:0:0:0:
256,192,13334,1,0,0:0:0:0:
256,192,13501,1,0,0:0:0:0:
256,192,13834,1,8,0:0:0:0:
256,192,14001,1,0,0:0:0:0:
256,192,14334,1,0,0:0:0:0:
256,192,14501,1,8,0:0:0:0:
256,192,14834,1,0,0:0:0:0:
256,192,15167,1,8,0:0:0:0:
256,192,15334,1,0,0:0:0:0:
256,192,15667,1,0,0:0:0:0:
256,192,15834,1,8,0:0:0:0:
256,192,16001,1,0,0:0:0:0:
256,192,16167,1,0,0:0:0:0:
256,192,16501,1,8,0:0:0:0:
256,192,16667,1,0,0:0:0:0:
256,192,17001,1,0,0:0:0:0:
256,192,17167,1,8,0:0:0:0:
256,192,17501,1,0,0:0:0:0:
256,192,17834,1,8,0:0:0:0:
256,192,18001,1,0,0:0:0:0:
256,192,18334,1,0,0:0:0:0:
256,192,18501,1,8,0:0:0:0:
256,192,18667,1,0,0:0:0:0:
256,192,18834,1,0,0:0:0:0:
256,192,18917,1,0,0:0:0:0:
256,192,19001,1,0,0:0:0:0:
256,192,19084,1,0,0:0:0:0:
256,192,19167,1,8,0:0:0:0:
256,192,19334,1,0,0:0:0:0:
256,192,19501,1,8,0:0:0:0:
256,192,19584,1,8,0:0:0:0:
256,192,19667,1,0,0:0:0:0:
256,192,19751,1,0,0:0:0:0:
256,192,19834,1,8,0:0:0:0:
256,192,20001,1,0,0:0:0:0:
256,192,20167,1,12,0:0:0:0:
256,192,20334,1,8,0:0:0:0:
256,192,20417,1,8,0:0:0:0:
256,192,20501,1,8,0:0:0:0:
256,192,20667,1,0,0:0:0:0:
256,192,20834,1,8,0:0:0:0:
256,192,21167,1,0,0:0:0:0:
256,192,21501,1,4,0:0:0:0:
256,192,21667,1,8,0:0:0:0:
256,192,21834,1,0,0:0:0:0:
256,192,22001,1,0,0:0:0:0:
256,192,22167,1,8,0:0:0:0:
256,192,22334,1,0,0:0:0:0:
256,192,22501,1,8,0:0:0:0:
256,192,22667,1,8,0:0:0:0:
256,192,22834,1,0,0:0:0:0:
256,192,23001,1,8,0:0:0:0:
256,192,23167,1,0,0:0:0:0:
256,192,23334,1,0,0:0:0:0:
256,192,23501,1,8,0:0:0:0:
256,192,23667,1,8,0:0:0:0:
256,192,23834,1,0,0:0:0:0:
256,192,24167,1,0,0:0:0:0:
256,192,24334,1,8,0:0:0:0:
256,192,24501,1,0,0:0:0:0:
256,192,24667,1,0,0:0:0:0:
256,192,24834,1,8,0:0:0:0:
256,192,25001,1,8,0:0:0:0:
256,192,25167,1,0,0:0:0:0:
256,192,25334,1,8,0:0:0:0:
256,192,25501,1,0,0:0:0:0:
256,192,25667,1,8,0:0:0:0:
256,192,25834,1,0,0:0:0:0:
256,192,26001,1,0,0:0:0:0:
256,192,26167,1,8,0:0:0:0:
256,192,26334,1,8,0:0:0:0:
256,192,26501,1,0,0:0:0:0:
256,192,26834,1,0,0:0:0:0:
256,192,27000,1,8,0:0:0:0:
256,192,27167,1,0,0:0:0:0:
256,192,27334,1,0,0:0:0:0:
256,192,27500,1,8,0:0:0:0:
256,192,27667,1,0,0:0:0:0:
256,192,27834,1,8,0:0:0:0:
256,192,28000,1,8,0:0:0:0:
256,192,28167,1,0,0:0:0:0:
256,192,28334,1,8,0:0:0:0:
256,192,28500,1,0,0:0:0:0:
256,192,28667,1,0,0:0:0:0:
256,192,28834,1,8,0:0:0:0:
256,192,29000,5,8,0:0:0:0:
256,192,29167,1,0,0:0:0:0:
256,192,29334,1,8,0:0:0:0:
256,192,29501,5,0,0:0:0:0:
256,192,29667,1,8,0:0:0:0:
256,192,29834,1,8,0:0:0:0:
256,192,30001,1,0,0:0:0:0:
256,192,30167,1,8,0:0:0:0:
256,192,30334,1,8,0:0:0:0:
256,192,30501,1,0,0:0:0:0:
256,192,30667,1,8,0:0:0:0:
256,192,30834,1,0,0:0:0:0:
256,192,30917,1,8,0:0:0:0:
256,192,31001,1,0,0:0:0:0:
256,192,31084,1,0,0:0:0:0:
256,192,31167,1,8,0:0:0:0:
256,192,31334,1,0,0:0:0:0:
256,192,31501,1,8,0:0:0:0:
256,192,31667,1,0,0:0:0:0:
256,192,31751,1,8,0:0:0:0:
256,192,31917,1,0,0:0:0:0:
256,192,32001,1,8,0:0:0:0:
256,192,32167,1,4,0:0:0:0:
256,192,32417,1,0,0:0:0:0:
256,192,32501,1,8,0:0:0:0:
256,192,32667,1,0,0:0:0:0:
256,192,32834,1,8,0:0:0:0:
256,192,33001,1,0,0:0:0:0:
256,192,33084,1,0,0:0:0:0:
256,192,33167,1,0,0:0:0:0:
256,192,33334,1,8,0:0:0:0:
256,192,33501,1,0,0:0:0:0:
256,192,33751,1,0,0:0:0:0:
256,192,33834,1,8,0:0:0:0:
256,192,34001,1,0,0:0:0:0:
256,192,34167,1,8,0:0:0:0:
256,192,34334,1,0,0:0:0:0:
256,192,34417,1,0,0:0:0:0:
256,192,34501,1,8,0:0:0:0:
256,192,34667,1,8,0:0:0:0:
256,192,34834,1,0,0:0:0:0:
256,192,35084,1,0,0:0:0:0:
256,192,35167,1,8,0:0:0:0:
256,192,35334,1,0,0:0:0:0:
256,192,35501,1,8,0:0:0:0:
256,192,35667,1,8,0:0:0:0:
256,192,35751,1,8,0:0:0:0:
256,192,35834,1,0,0:0:0:0:
256,192,36001,1,8,0:0:0:0:
256,192,36167,1,0,0:0:0:0:
256,192,36417,1,0,0:0:0:0:
256,192,36501,1,8,0:0:0:0:
256,192,36667,1,0,0:0:0:0:
256,192,36834,1,8,0:0:0:0:
256,192,37001,1,0,0:0:0:0:
256,192,37084,1,0,0:0:0:0:
256,192,37167,1,0,0:0:0:0:
256,192,37334,1,8,0:0:0:0:
256,192,37501,1,0,0:0:0:0:
256,192,37751,1,0,0:0:0:0:
256,192,37834,1,8,0:0:0:0:
256,192,38001,1,0,0:0:0:0:
256,192,38167,1,8,0:0:0:0:
256,192,38334,1,0,0:0:0:0:
256,192,38417,1,0,0:0:0:0:
256,192,38501,1,8,0:0:0:0:
256,192,38667,1,8,0:0:0:0:
256,192,38834,1,0,0:0:0:0:
256,192,39084,1,0,0:0:0:0:
256,192,39167,1,8,0:0:0:0:
256,192,39334,1,0,0:0:0:0:
256,192,39501,1,8,0:0:0:0:
256,192,39667,1,8,0:0:0:0:
256,192,39751,1,8,0:0:0:0:
256,192,39834,1,0,0:0:0:0:
256,192,40001,1,8,0:0:0:0:
256,192,40167,1,0,0:0:0:0:
256,192,40251,1,0,0:0:0:0:
256,192,40334,1,0,0:0:0:0:
256,192,40417,1,0,0:0:0:0:
256,192,40501,1,8,0:0:0:0:
256,192,40667,1,0,0:0:0:0:
256,192,40834,1,8,0:0:0:0:
256,192,40917,1,8,0:0:0:0:
256,192,41001,1,0,0:0:0:0:
256,192,41084,1,0,0:0:0:0:
256,192,41167,1,8,0:0:0:0:
256,192,41334,1,0,0:0:0:0:
256,192,41501,1,12,0:0:0:0:
256,192,41667,1,8,0:0:0:0:
256,192,41751,1,8,0:0:0:0:
256,192,41834,1,0,0:0:0:0:
256,192,42001,1,0,0:0:0:0:
256,192,42167,1,8,0:0:0:0:
256,192,42334,1,0,0:0:0:0:
256,192,42417,1,8,0:0:0:0:
256,192,42584,1,0,0:0:0:0:
256,192,42667,1,8,0:0:0:0:
256,192,42834,1,4,0:0:0:0:
256,192,43084,1,8,0:0:0:0:
256,192,43167,1,8,0:0:0:0:
256,192,43334,1,0,0:0:0:0:
256,192,43501,1,8,0:0:0:0:
256,192,43584,1,8,0:0:0:0:
256,192,43667,1,0,0:0:0:0:
256,192,43834,1,8,0:0:0:0:
256,192,44001,1,8,0:0:0:0:
256,192,44167,1,0,0:0:0:0:
256,192,44334,1,0,0:0:0:0:
256,192,44417,1,8,0:0:0:0:
256,192,44501,1,8,0:0:0:0:
256,192,44667,1,0,0:0:0:0:
256,192,44834,1,8,0:0:0:0:
256,192,44917,1,8,0:0:0:0:
256,192,45001,1,0,0:0:0:0:
256,192,45167,1,8,0:0:0:0:
256,192,45334,1,0,0:0:0:0:
240,192,45501,1,8,0:0:0:0:
240,192,45667,1,0,0:0:0:0:
240,192,45751,1,8,0:0:0:0:
240,192,45834,1,8,0:0:0:0:
240,192,46001,1,8,0:0:0:0:
240,192,46334,1,8,0:0:0:0:
240,192,46501,1,0,0:0:0:0:
240,192,46667,1,8,0:0:0:0:
240,192,46834,1,8,0:0:0:0:
240,192,47001,1,0,0:0:0:0:
240,192,47084,1,8,0:0:0:0:
240,192,47167,1,8,0:0:0:0:
240,192,47334,1,0,0:0:0:0:
240,192,47501,1,8,0:0:0:0:
240,192,47584,1,8,0:0:0:0:
240,192,47667,1,0,0:0:0:0:
240,192,47834,1,8,0:0:0:0:
240,192,48001,1,8,0:0:0:0:
240,192,48167,1,4,0:0:0:0:
256,192,48417,1,8,0:0:0:0:
256,192,48500,1,8,0:0:0:0:
256,192,48667,1,0,0:0:0:0:
256,192,48834,1,8,0:0:0:0:
256,192,48917,1,8,0:0:0:0:
256,192,49000,1,0,0:0:0:0:
256,192,49167,1,8,0:0:0:0:
256,192,49334,1,8,0:0:0:0:
256,192,49500,1,0,0:0:0:0:
256,192,49667,1,0,0:0:0:0:
256,192,49750,1,8,0:0:0:0:
256,192,49834,1,8,0:0:0:0:
256,192,50000,1,0,0:0:0:0:
256,192,50167,1,8,0:0:0:0:
256,192,50250,1,8,0:0:0:0:
256,192,50334,1,0,0:0:0:0:
256,192,50500,1,8,0:0:0:0:
256,192,50667,1,0,0:0:0:0:
240,192,50834,1,8,0:0:0:0:
240,192,51000,1,0,0:0:0:0:
240,192,51084,1,8,0:0:0:0:
240,192,51167,1,8,0:0:0:0:
240,192,51334,1,8,0:0:0:0:
240,192,51667,1,8,0:0:0:0:
240,192,51834,1,0,0:0:0:0:
240,192,52001,1,8,0:0:0:0:
240,192,52167,1,8,0:0:0:0:
240,192,52334,1,0,0:0:0:0:
240,192,52417,1,8,0:0:0:0:
240,192,52501,1,8,0:0:0:0:
240,192,52667,1,0,0:0:0:0:
240,192,52834,1,8,0:0:0:0:
240,192,52917,1,8,0:0:0:0:
240,192,53001,1,0,0:0:0:0:
240,192,53084,1,0,0:0:0:0:
240,192,53167,1,8,0:0:0:0:
240,192,53334,1,8,0:0:0:0:
240,192,53501,1,4,0:0:0:0:
256,192,53751,1,8,0:0:0:0:
256,192,53834,1,8,0:0:0:0:
256,192,54001,1,0,0:0:0:0:
256,192,54168,1,8,0:0:0:0:
256,192,54251,1,8,0:0:0:0:
256,192,54334,1,0,0:0:0:0:
240,192,54417,1,0,0:0:0:0:
256,192,54501,1,8,0:0:0:0:
256,192,54668,1,8,0:0:0:0:
256,192,54834,1,0,0:0:0:0:
256,192,55001,1,0,0:0:0:0:
256,192,55084,1,8,0:0:0:0:
256,192,55168,1,8,0:0:0:0:
256,192,55334,1,0,0:0:0:0:
256,192,55501,1,8,0:0:0:0:
256,192,55584,1,8,0:0:0:0:
256,192,55668,1,0,0:0:0:0:
240,192,55751,1,0,0:0:0:0:
256,192,55834,1,8,0:0:0:0:
256,192,56001,1,0,0:0:0:0:
240,192,56168,1,8,0:0:0:0:
240,192,56334,1,0,0:0:0:0:
240,192,56418,1,8,0:0:0:0:
240,192,56501,1,8,0:0:0:0:
240,192,56584,1,0,0:0:0:0:
240,192,56668,1,8,0:0:0:0:
240,192,57001,1,8,0:0:0:0:
240,192,57168,1,0,0:0:0:0:
240,192,57335,1,8,0:0:0:0:
240,192,57501,1,8,0:0:0:0:
240,192,57667,1,0,0:0:0:0:
240,192,57751,1,8,0:0:0:0:
240,192,57834,1,8,0:0:0:0:
240,192,58001,1,0,0:0:0:0:
240,192,58167,1,8,0:0:0:0:
240,192,58251,1,8,0:0:0:0:
240,192,58334,1,0,0:0:0:0:
240,192,58417,1,0,0:0:0:0:
240,192,58501,1,8,0:0:0:0:
240,192,58667,1,8,0:0:0:0:
240,192,58834,1,4,0:0:0:0:
256,192,59084,1,8,0:0:0:0:
256,192,59167,1,8,0:0:0:0:
256,192,59334,1,0,0:0:0:0:
256,192,59501,1,8,0:0:0:0:
256,192,59584,1,8,0:0:0:0:
256,192,59667,1,0,0:0:0:0:
240,192,59750,1,0,0:0:0:0:
256,192,59834,1,8,0:0:0:0:
256,192,60001,1,8,0:0:0:0:
256,192,60167,1,4,0:0:0:0:
256,192,60334,1,0,0:0:0:0:
256,192,60417,1,8,0:0:0:0:
256,192,60501,1,8,0:0:0:0:
256,192,60667,1,0,0:0:0:0:
256,192,60834,1,8,0:0:0:0:
256,192,60917,1,8,0:0:0:0:
256,192,61001,1,0,0:0:0:0:
240,192,61084,1,0,0:0:0:0:
256,192,61167,1,8,0:0:0:0:
256,192,61334,1,8,0:0:0:0:
240,192,61501,1,4,0:0:0:0:
256,192,62001,1,4,0:0:0:0:
256,192,62167,1,4,0:0:0:0:
256,192,62501,1,4,0:0:0:0:
256,192,62834,1,0,0:0:0:0:
256,192,63001,1,8,0:0:0:0:
256,192,63084,1,8,0:0:0:0:
256,192,63167,1,8,0:0:0:0:
256,192,63334,1,0,0:0:0:0:
256,192,63501,1,8,0:0:0:0:
256,192,63584,1,0,0:0:0:0:
256,192,63667,1,0,0:0:0:0:
256,192,63834,1,8,0:0:0:0:
256,192,63917,1,0,0:0:0:0:
256,192,64001,1,8,0:0:0:0:
256,192,64084,1,8,0:0:0:0:
256,192,64167,1,0,0:0:0:0:
256,192,64334,1,0,0:0:0:0:
256,192,64417,1,0,0:0:0:0:
256,192,64501,1,8,0:0:0:0:
256,192,64667,1,0,0:0:0:0:
256,192,65001,1,0,0:0:0:0:
256,192,65167,1,8,0:0:0:0:
256,192,65334,1,8,0:0:0:0:
256,192,65501,1,0,0:0:0:0:
256,192,65667,1,8,0:0:0:0:
256,192,65751,1,0,0:0:0:0:
256,192,65834,1,8,0:0:0:0:
256,192,66001,1,0,0:0:0:0:
256,192,66167,1,8,0:0:0:0:
256,192,66334,1,0,0:0:0:0:
256,192,66417,1,0,0:0:0:0:
256,192,66501,1,8,0:0:0:0:
256,192,66667,1,8,0:0:0:0:
256,192,66834,1,0,0:0:0:0:
256,192,67001,1,0,0:0:0:0:
256,192,67084,1,0,0:0:0:0:
256,192,67167,1,8,0:0:0:0:
256,192,67334,1,0,0:0:0:0:
256,192,67667,1,0,0:0:0:0:
256,192,67834,1,8,0:0:0:0:
256,192,68001,1,8,0:0:0:0:
256,192,68167,1,0,0:0:0:0:
256,192,68334,1,8,0:0:0:0:
256,192,68417,1,8,0:0:0:0:
256,192,68501,1,0,0:0:0:0:
256,192,68667,1,8,0:0:0:0:
256,192,68834,1,8,0:0:0:0:
256,192,69001,1,0,0:0:0:0:
256,192,69084,1,0,0:0:0:0:
256,192,69167,1,0,0:0:0:0:
256,192,69334,1,8,0:0:0:0:
256,192,69501,1,0,0:0:0:0:
256,192,69667,1,0,0:0:0:0:
256,192,69751,1,0,0:0:0:0:
256,192,69834,1,8,0:0:0:0:
256,192,70001,1,0,0:0:0:0:
256,192,70334,1,0,0:0:0:0:
256,192,70501,1,8,0:0:0:0:
256,192,70667,1,8,0:0:0:0:
256,192,70834,1,0,0:0:0:0:
256,192,71001,1,8,0:0:0:0:
256,192,71084,1,8,0:0:0:0:
256,192,71167,1,0,0:0:0:0:
256,192,71334,1,8,0:0:0:0:
256,192,71501,1,0,0:0:0:0:
256,192,71667,1,8,0:0:0:0:
256,192,71751,1,0,0:0:0:0:
256,192,71834,1,8,0:0:0:0:
256,192,72001,1,0,0:0:0:0:
256,192,72167,1,8,0:0:0:0:
256,192,72334,1,8,0:0:0:0:
256,192,72667,1,8,0:0:0:0:
256,192,72834,1,8,0:0:0:0:
256,192,73001,1,0,0:0:0:0:
256,192,73167,1,8,0:0:0:0:
256,192,73334,1,0,0:0:0:0:
256,192,73501,1,8,0:0:0:0:
256,192,73584,1,8,0:0:0:0:
256,192,73667,1,0,0:0:0:0:
256,192,73751,1,8,0:0:0:0:
256,192,73834,1,0,0:0:0:0:
256,192,74001,1,0,0:0:0:0:
256,192,74167,1,8,0:0:0:0:
256,192,74334,1,0,0:0:0:0:
256,192,74417,1,8,0:0:0:0:
256,192,74584,1,0,0:0:0:0:
256,192,74667,1,8,0:0:0:0:
256,192,74834,1,4,0:0:0:0:
256,192,75001,1,0,0:0:0:0:
256,192,75084,1,0,0:0:0:0:
256,192,75167,1,8,0:0:0:0:
256,192,75334,1,0,0:0:0:0:
256,192,75667,1,0,0:0:0:0:
256,192,75833,1,8,0:0:0:0:
256,192,76000,1,8,0:0:0:0:
256,192,76167,1,0,0:0:0:0:
256,192,76333,1,8,0:0:0:0:
256,192,76417,1,0,0:0:0:0:
256,192,76500,1,8,0:0:0:0:
256,192,76667,1,0,0:0:0:0:
256,192,76833,1,8,0:0:0:0:
256,192,77000,1,0,0:0:0:0:
256,192,77083,1,0,0:0:0:0:
256,192,77167,1,8,0:0:0:0:
256,192,77333,1,8,0:0:0:0:
256,192,77500,1,0,0:0:0:0:
256,192,77667,1,0,0:0:0:0:
256,192,77750,1,0,0:0:0:0:
256,192,77833,1,8,0:0:0:0:
256,192,78000,1,0,0:0:0:0:
256,192,78333,1,0,0:0:0:0:
256,192,78500,1,8,0:0:0:0:
256,192,78667,1,8,0:0:0:0:
256,192,78833,1,0,0:0:0:0:
256,192,79000,1,8,0:0:0:0:
256,192,79083,1,8,0:0:0:0:
256,192,79167,1,0,0:0:0:0:
256,192,79333,1,8,0:0:0:0:
256,192,79500,1,0,0:0:0:0:
256,192,79667,1,0,0:0:0:0:
256,192,79750,1,0,0:0:0:0:
256,192,79833,1,8,0:0:0:0:
256,192,80000,1,0,0:0:0:0:
256,192,80167,1,8,0:0:0:0:
256,192,80251,1,8,0:0:0:0:
256,192,80333,1,0,0:0:0:0:
256,192,80500,1,0,0:0:0:0:
256,192,80667,1,8,0:0:0:0:
256,192,81000,1,8,0:0:0:0:
256,192,81084,1,8,0:0:0:0:
256,192,81167,1,0,0:0:0:0:
256,192,81334,1,8,0:0:0:0:
256,192,81500,1,0,0:0:0:0:
256,192,81667,1,0,0:0:0:0:
256,192,81750,1,0,0:0:0:0:
256,192,81833,1,8,0:0:0:0:
256,192,82000,1,8,0:0:0:0:
256,192,82333,1,0,0:0:0:0:
256,192,82500,1,8,0:0:0:0:
256,192,82667,1,0,0:0:0:0:
256,192,82751,1,0,0:0:0:0:
256,192,82833,1,8,0:0:0:0:
256,192,83000,1,8,0:0:0:0:
256,192,83167,1,0,0:0:0:0:
256,192,83334,1,8,0:0:0:0:
256,192,83501,1,0,0:0:0:0:
256,192,83667,1,8,0:0:0:0:
256,192,83751,1,8,0:0:0:0:
256,192,83834,1,0,0:0:0:0:
256,192,84001,1,8,0:0:0:0:
256,192,84167,1,0,0:0:0:0:
256,192,84501,1,0,0:0:0:0:
256,192,84834,1,0,0:0:0:0:
256,192,85001,1,0,0:0:0:0:
256,192,85084,1,0,0:0:0:0:
256,192,85167,1,8,0:0:0:0:
256,192,85501,1,4,0:0:0:0:
256,192,85667,1,8,0:0:0:0:
256,192,86001,1,8,0:0:0:0:
256,192,86334,1,8,0:0:0:0:
256,192,86501,1,0,0:0:0:0:
256,192,86834,1,0,0:0:0:0:
256,192,87001,1,8,0:0:0:0:
256,192,87334,1,8,0:0:0:0:
256,192,87667,1,8,0:0:0:0:
256,192,87834,1,0,0:0:0:0:
256,192,88167,1,0,0:0:0:0:
256,192,88334,1,8,0:0:0:0:
256,192,88667,1,8,0:0:0:0:
256,192,89001,1,8,0:0:0:0:
256,192,89167,1,0,0:0:0:0:
256,192,89501,1,0,0:0:0:0:
256,192,89667,1,8,0:0:0:0:
256,192,90001,1,8,0:0:0:0:
256,192,90334,1,8,0:0:0:0:
256,192,90501,1,0,0:0:0:0:
256,192,90834,1,0,0:0:0:0:
256,192,91001,1,8,0:0:0:0:
256,192,91334,1,8,0:0:0:0:
256,192,91667,1,8,0:0:0:0:
256,192,91834,1,0,0:0:0:0:
256,192,92167,1,0,0:0:0:0:
256,192,92334,1,8,0:0:0:0:
256,192,92667,1,8,0:0:0:0:
256,192,93001,1,8,0:0:0:0:
256,192,93167,1,0,0:0:0:0:
256,192,93501,1,12,0:0:0:0:
256,192,94001,1,8,0:0:0:0:
256,192,94334,1,8,0:0:0:0:
256,192,94501,1,0,0:0:0:0:
256,192,94834,1,4,0:0:0:0:
256,192,95001,1,0,0:0:0:0:
256,192,95084,1,0,0:0:0:0:
256,192,95167,1,8,0:0:0:0:
256,192,95334,1,0,0:0:0:0:
256,192,95501,1,8,0:0:0:0:
256,192,95584,1,0,0:0:0:0:
256,192,95667,1,0,0:0:0:0:
256,192,95834,1,8,0:0:0:0:
256,192,95917,1,0,0:0:0:0:
256,192,96001,1,8,0:0:0:0:
256,192,96084,1,8,0:0:0:0:
256,192,96167,1,0,0:0:0:0:
256,192,96334,1,0,0:0:0:0:
256,192,96417,1,0,0:0:0:0:
256,192,96501,1,8,0:0:0:0:
256,192,96667,1,0,0:0:0:0:
256,192,97001,1,0,0:0:0:0:
256,192,97084,1,0,0:0:0:0:
256,192,97167,1,8,0:0:0:0:
256,192,97334,1,8,0:0:0:0:
256,192,97501,1,0,0:0:0:0:
256,192,97667,1,8,0:0:0:0:
256,192,97751,1,0,0:0:0:0:
256,192,97834,1,8,0:0:0:0:
256,192,98001,1,0,0:0:0:0:
256,192,98167,1,8,0:0:0:0:
256,192,98251,1,0,0:0:0:0:
256,192,98334,1,8,0:0:0:0:
256,192,98417,1,8,0:0:0:0:
256,192,98501,1,0,0:0:0:0:
256,192,98667,1,8,0:0:0:0:
256,192,98834,1,0,0:0:0:0:
256,192,99001,1,0,0:0:0:0:
256,192,99084,1,0,0:0:0:0:
256,192,99167,1,8,0:0:0:0:
256,192,99334,1,0,0:0:0:0:
256,192,99667,1,0,0:0:0:0:
256,192,99751,1,0,0:0:0:0:
256,192,99834,1,8,0:0:0:0:
256,192,100001,1,8,0:0:0:0:
256,192,100167,1,0,0:0:0:0:
256,192,100334,1,8,0:0:0:0:
256,192,100417,1,8,0:0:0:0:
256,192,100501,1,0,0:0:0:0:
256,192,100667,1,8,0:0:0:0:
256,192,100834,1,0,0:0:0:0:
256,192,100917,1,0,0:0:0:0:
256,192,101001,1,8,0:0:0:0:
256,192,101084,1,8,0:0:0:0:
256,192,101167,1,0,0:0:0:0:
256,208,101334,1,8,0:0:0:0:
256,192,101501,1,0,0:0:0:0:
256,192,101667,1,0,0:0:0:0:
256,192,101751,1,0,0:0:0:0:
256,192,101834,1,8,0:0:0:0:
256,192,102001,1,0,0:0:0:0:
256,192,102334,1,0,0:0:0:0:
256,192,102417,1,0,0:0:0:0:
256,192,102501,1,8,0:0:0:0:
256,192,102667,1,8,0:0:0:0:
256,192,102834,1,0,0:0:0:0:
256,192,103001,1,0,0:0:0:0:
256,192,103084,1,0,0:0:0:0:
256,192,103167,1,8,0:0:0:0:
256,192,103334,1,0,0:0:0:0:
256,192,103667,5,0,0:0:0:0:
256,192,103751,1,0,0:0:0:0:
256,192,103834,1,8,0:0:0:0:
256,192,104001,1,8,0:0:0:0:
256,192,104167,5,0,0:0:0:0:
256,192,104251,1,0,0:0:0:0:
256,192,104334,1,0,0:0:0:0:
256,192,104417,1,0,0:0:0:0:
256,192,104501,1,8,0:0:0:0:
256,192,104667,1,0,0:0:0:0:
256,192,104834,1,8,0:0:0:0:
256,192,104917,1,8,0:0:0:0:
256,192,105001,1,0,0:0:0:0:
256,192,105084,1,0,0:0:0:0:
256,192,105167,1,8,0:0:0:0:
256,192,105334,1,0,0:0:0:0:
256,208,105501,5,12,0:0:0:0:
256,208,105667,1,8,0:0:0:0:
256,208,105751,1,8,0:0:0:0:
256,208,105834,1,8,0:0:0:0:
256,208,106001,1,0,0:0:0:0:
256,208,106167,1,8,0:0:0:0:
256,208,106334,1,0,0:0:0:0:
256,208,106417,1,8,0:0:0:0:
256,208,106584,1,0,0:0:0:0:
256,208,106667,1,8,0:0:0:0:
256,208,106834,1,4,0:0:0:0:
256,208,107001,1,0,0:0:0:0:
256,208,107084,1,0,0:0:0:0:
256,208,107167,1,8,0:0:0:0:
256,208,107334,1,0,0:0:0:0:
256,208,107501,1,0,0:0:0:0:
256,208,107584,1,0,0:0:0:0:
256,208,107667,1,8,0:0:0:0:
256,208,107834,1,0,0:0:0:0:
256,208,107917,1,0,0:0:0:0:
256,208,108001,1,8,0:0:0:0:
256,208,108167,1,0,0:0:0:0:
256,208,108334,1,8,0:0:0:0:
256,208,108417,1,0,0:0:0:0:
256,208,108501,1,8,0:0:0:0:
256,208,108667,1,0,0:0:0:0:
256,208,108834,1,8,0:0:0:0:
256,208,108917,1,0,0:0:0:0:
256,208,109001,1,8,0:0:0:0:
256,208,109167,1,0,0:0:0:0:
256,208,109251,1,0,0:0:0:0:
256,208,109334,1,8,0:0:0:0:
256,208,109501,1,0,0:0:0:0:
256,208,109667,1,8,0:0:0:0:
256,208,109751,1,8,0:0:0:0:
256,208,109834,1,8,0:0:0:0:
256,208,110001,1,0,0:0:0:0:
256,208,110167,1,8,0:0:0:0:
256,208,110251,1,8,0:0:0:0:
256,208,110334,1,8,0:0:0:0:
256,208,110501,1,0,0:0:0:0:
256,208,110584,1,0,0:0:0:0:
256,208,110667,1,8,0:0:0:0:
256,208,110834,1,0,0:0:0:0:
256,208,111001,1,8,0:0:0:0:
256,208,111084,1,8,0:0:0:0:
256,208,111167,1,0,0:0:0:0:
256,208,111334,1,0,0:0:0:0:
256,208,111501,1,8,0:0:0:0:
256,208,111584,1,8,0:0:0:0:
256,208,111667,1,0,0:0:0:0:
256,208,111834,1,8,0:0:0:0:
256,208,112167,1,0,0:0:0:0:
256,208,112334,1,0,0:0:0:0:
256,208,112417,1,0,0:0:0:0:
256,208,112500,1,8,0:0:0:0:
256,208,112667,1,0,0:0:0:0:
256,208,112834,1,0,0:0:0:0:
256,208,112917,1,0,0:0:0:0:
256,208,113000,1,8,0:0:0:0:
256,208,113167,1,0,0:0:0:0:
256,208,113250,1,0,0:0:0:0:
256,208,113334,1,8,0:0:0:0:
256,208,113500,1,0,0:0:0:0:
256,208,113667,1,8,0:0:0:0:
256,208,113750,1,0,0:0:0:0:
256,208,113834,1,8,0:0:0:0:
256,208,114000,1,0,0:0:0:0:
256,208,114167,1,8,0:0:0:0:
256,208,114250,1,0,0:0:0:0:
256,208,114334,1,8,0:0:0:0:
256,208,114500,1,0,0:0:0:0:
256,208,114584,1,0,0:0:0:0:
256,208,114667,1,8,0:0:0:0:
256,208,114834,1,0,0:0:0:0:
256,208,115000,1,8,0:0:0:0:
256,208,115084,1,8,0:0:0:0:
256,208,115167,1,8,0:0:0:0:
256,208,115334,1,0,0:0:0:0:
256,208,115500,1,8,0:0:0:0:
256,208,115584,1,8,0:0:0:0:
256,208,115667,1,8,0:0:0:0:
256,208,115834,1,0,0:0:0:0:
256,208,115917,1,0,0:0:0:0:
256,208,116000,1,8,0:0:0:0:
256,208,116167,1,0,0:0:0:0:
256,208,116251,1,0,0:0:0:0:
256,208,116334,1,8,0:0:0:0:
256,208,116417,1,8,0:0:0:0:
256,208,116500,1,0,0:0:0:0:
256,208,116667,1,0,0:0:0:0:
256,208,116834,1,8,0:0:0:0:
256,208,117000,1,0,0:0:0:0:
256,208,117084,1,8,0:0:0:0:
256,208,117251,1,0,0:0:0:0:
256,208,117334,1,8,0:0:0:0:
256,208,117501,1,4,0:0:0:0:
256,208,117834,1,8,0:0:0:0:
256,208,118167,1,0,0:0:0:0:
256,208,118501,1,8,0:0:0:0:
256,208,118834,1,0,0:0:0:0:
256,208,119167,1,8,0:0:0:0:
256,208,119501,1,0,0:0:0:0:
256,208,119834,1,8,0:0:0:0:
256,208,120001,1,0,0:0:0:0:
256,208,120167,1,0,0:0:0:0:
256,208,120501,1,8,0:0:0:0:
256,208,120834,1,0,0:0:0:0:
256,208,121167,1,8,0:0:0:0:
256,208,121501,1,0,0:0:0:0:
256,208,121834,1,8,0:0:0:0:
256,208,122167,1,0,0:0:0:0:
256,208,122417,1,0,0:0:0:0:
256,208,122501,1,8,0:0:0:0:
256,208,122667,1,0,0:0:0:0:
256,208,122834,1,0,0:0:0:0:
256,208,122917,1,0,0:0:0:0:
256,208,123001,1,0,0:0:0:0:
256,208,123084,1,0,0:0:0:0:
256,208,123167,1,8,0:0:0:0:
256,208,123334,1,0,0:0:0:0:
256,208,123501,1,8,0:0:0:0:
256,208,123584,1,0,0:0:0:0:
256,208,123667,1,0,0:0:0:0:
256,208,123751,1,8,0:0:0:0:
256,208,123834,1,0,0:0:0:0:
256,208,124001,1,8,0:0:0:0:
256,208,124167,1,0,0:0:0:0:
256,208,124251,1,0,0:0:0:0:
256,208,124334,1,0,0:0:0:0:
256,208,124417,1,0,0:0:0:0:
256,208,124501,1,8,0:0:0:0:
256,208,124667,1,0,0:0:0:0:
256,208,124834,1,8,0:0:0:0:
256,208,124917,1,0,0:0:0:0:
256,208,125001,1,8,0:0:0:0:
256,208,125084,1,8,0:0:0:0:
256,208,125167,1,0,0:0:0:0:
256,208,125334,1,8,0:0:0:0:
256,208,125501,1,0,0:0:0:0:
256,208,125584,1,0,0:0:0:0:
256,208,125667,1,0,0:0:0:0:
256,208,125751,1,0,0:0:0:0:
256,208,125834,1,8,0:0:0:0:
256,208,125917,1,8,0:0:0:0:
256,208,126001,1,8,0:0:0:0:
256,208,126084,1,8,0:0:0:0:
256,208,126167,1,0,0:0:0:0:
256,208,126251,1,8,0:0:0:0:
256,208,126334,1,0,0:0:0:0:
256,208,126417,1,0,0:0:0:0:
256,208,126501,1,8,0:0:0:0:
256,208,126584,1,0,0:0:0:0:
256,208,126667,1,8,0:0:0:0:
256,208,126751,1,8,0:0:0:0:
256,208,126834,1,0,0:0:0:0:
256,208,126917,1,0,0:0:0:0:
256,208,127001,1,8,0:0:0:0:
256,208,127084,1,0,0:0:0:0:
256,208,127167,1,8,0:0:0:0:
256,208,127251,1,8,0:0:0:0:
256,208,127334,1,0,0:0:0:0:
256,208,127417,1,0,0:0:0:0:
256,208,127501,1,8,0:0:0:0:
256,208,127667,1,0,0:0:0:0:
256,208,127751,1,8,0:0:0:0:
256,208,127917,1,0,0:0:0:0:
256,208,128001,1,8,0:0:0:0:
256,192,128167,1,4,0:0:0:0:
256,192,128417,1,0,0:0:0:0:
256,192,128501,1,8,0:0:0:0:
256,192,128667,1,0,0:0:0:0:
256,176,128834,1,8,0:0:0:0:
256,176,128917,1,8,0:0:0:0:
256,192,129001,1,0,0:0:0:0:
256,176,129084,1,0,0:0:0:0:
256,176,129167,1,8,0:0:0:0:
256,176,129334,1,8,0:0:0:0:
256,176,129501,1,0,0:0:0:0:
256,176,129667,1,0,0:0:0:0:
256,176,129751,1,0,0:0:0:0:
256,176,129834,1,8,0:0:0:0:
256,176,130001,1,8,0:0:0:0:
256,176,130167,1,0,0:0:0:0:
256,176,130334,1,8,0:0:0:0:
256,176,130417,1,0,0:0:0:0:
256,176,130501,1,8,0:0:0:0:
256,176,130667,1,8,0:0:0:0:
256,176,130834,1,0,0:0:0:0:
256,176,131084,1,0,0:0:0:0:
256,176,131167,1,8,0:0:0:0:
256,176,131334,1,0,0:0:0:0:
256,176,131501,1,8,0:0:0:0:
256,176,131584,1,0,0:0:0:0:
256,176,131667,1,8,0:0:0:0:
256,176,131751,1,8,0:0:0:0:
256,176,131834,1,0,0:0:0:0:
256,176,132001,1,8,0:0:0:0:
256,176,132167,1,0,0:0:0:0:
256,176,132334,1,0,0:0:0:0:
256,176,132417,1,0,0:0:0:0:
256,176,132501,1,8,0:0:0:0:
256,176,132667,1,0,0:0:0:0:
256,176,132834,1,8,0:0:0:0:
256,176,132917,1,8,0:0:0:0:
256,176,133001,1,0,0:0:0:0:
256,176,133084,1,0,0:0:0:0:
256,176,133167,1,8,0:0:0:0:
256,176,133334,1,8,0:0:0:0:
256,176,133501,1,0,0:0:0:0:
256,176,133751,1,0,0:0:0:0:
256,176,133834,1,8,0:0:0:0:
256,176,134001,1,0,0:0:0:0:
256,176,134167,1,8,0:0:0:0:
256,176,134251,1,8,0:0:0:0:
256,176,134334,1,0,0:0:0:0:
256,176,134417,1,0,0:0:0:0:
256,176,134501,1,8,0:0:0:0:
256,176,134667,1,8,0:0:0:0:
256,176,134834,1,0,0:0:0:0:
256,176,135001,1,0,0:0:0:0:
256,176,135084,1,8,0:0:0:0:
256,176,135167,1,0,0:0:0:0:
256,176,135334,1,8,0:0:0:0:
256,176,135501,1,0,0:0:0:0:
256,176,135667,1,0,0:0:0:0:
256,176,135751,1,0,0:0:0:0:
256,176,135834,1,8,0:0:0:0:
256,176,136001,1,8,0:0:0:0:
256,192,136167,1,0,0:0:0:0:
256,192,136334,1,0,0:0:0:0:
256,192,136501,1,8,0:0:0:0:
256,192,136667,1,0,0:0:0:0:
256,192,136834,1,0,0:0:0:0:
256,192,137001,1,0,0:0:0:0:
256,192,137167,1,8,0:0:0:0:
256,192,137334,1,0,0:0:0:0:
256,192,137501,1,8,0:0:0:0:
256,192,137584,1,8,0:0:0:0:
256,192,137667,1,0,0:0:0:0:
256,192,137751,1,0,0:0:0:0:
256,192,137834,1,8,0:0:0:0:
256,192,138001,1,0,0:0:0:0:
256,192,138167,1,8,0:0:0:0:
256,192,138334,1,0,0:0:0:0:
256,192,138417,1,8,0:0:0:0:
256,192,138584,1,0,0:0:0:0:
256,192,138667,1,8,0:0:0:0:
256,192,138834,1,4,0:0:0:0:
256,192,139084,1,0,0:0:0:0:
256,192,139167,1,8,0:0:0:0:
256,192,139334,1,0,0:0:0:0:
256,192,139501,1,8,0:0:0:0:
256,192,139584,1,0,0:0:0:0:
256,192,139667,1,8,0:0:0:0:
256,192,139751,1,8,0:0:0:0:
256,192,139834,1,0,0:0:0:0:
256,192,140001,1,8,0:0:0:0:
256,192,140167,1,0,0:0:0:0:
256,192,140334,1,0,0:0:0:0:
256,192,140417,1,0,0:0:0:0:
256,192,140501,1,8,0:0:0:0:
256,192,140667,1,8,0:0:0:0:
256,192,140834,1,0,0:0:0:0:
256,192,141001,1,8,0:0:0:0:
256,192,141084,1,0,0:0:0:0:
256,192,141167,1,8,0:0:0:0:
256,192,141334,1,8,0:0:0:0:
256,192,141501,1,0,0:0:0:0:
256,192,141751,1,0,0:0:0:0:
256,192,141834,1,8,0:0:0:0:
256,192,142001,1,0,0:0:0:0:
256,192,142167,1,8,0:0:0:0:
256,192,142251,1,8,0:0:0:0:
256,192,142334,1,0,0:0:0:0:
256,192,142417,1,8,0:0:0:0:
256,192,142501,1,0,0:0:0:0:
256,192,142667,1,8,0:0:0:0:
256,192,142834,1,0,0:0:0:0:
256,192,143001,1,0,0:0:0:0:
256,192,143084,1,0,0:0:0:0:
256,192,143167,1,8,0:0:0:0:
256,192,143334,1,0,0:0:0:0:
256,192,143501,1,8,0:0:0:0:
256,192,143584,1,8,0:0:0:0:
256,192,143667,1,0,0:0:0:0:
256,192,143751,1,0,0:0:0:0:
256,192,143834,1,8,0:0:0:0:
256,192,144001,1,8,0:0:0:0:
256,192,144167,1,0,0:0:0:0:
256,192,144417,1,0,0:0:0:0:
256,192,144501,1,8,0:0:0:0:
256,192,144667,1,0,0:0:0:0:
256,192,144834,1,8,0:0:0:0:
256,192,144917,1,8,0:0:0:0:
256,192,145001,1,0,0:0:0:0:
256,192,145084,1,0,0:0:0:0:
256,192,145167,1,8,0:0:0:0:
256,192,145334,1,8,0:0:0:0:
256,192,145501,1,0,0:0:0:0:
256,192,145667,1,8,0:0:0:0:
256,192,145751,1,8,0:0:0:0:
256,192,145834,1,0,0:0:0:0:
256,192,146001,1,8,0:0:0:0:
256,192,146167,1,0,0:0:0:0:
256,192,146334,1,0,0:0:0:0:
256,192,146417,1,0,0:0:0:0:
256,192,146501,1,8,0:0:0:0:
256,192,146667,1,8,0:0:0:0:
256,192,146834,1,4,0:0:0:0:
256,192,147001,1,0,0:0:0:0:
256,192,147084,1,0,0:0:0:0:
256,192,147167,1,8,0:0:0:0:
256,192,147334,1,0,0:0:0:0:
256,192,147501,1,8,0:0:0:0:
256,192,147667,1,0,0:0:0:0:
256,192,147751,1,8,0:0:0:0:
256,192,147917,1,0,0:0:0:0:
256,192,148001,1,8,0:0:0:0:
256,192,148167,1,4,0:0:0:0:
256,192,148501,1,0,0:0:0:0:
256,192,148834,1,0,0:0:0:0:
256,192,149001,1,0,0:0:0:0:
256,192,149084,1,0,0:0:0:0:
256,192,149167,1,8,0:0:0:0:
256,192,149501,1,4,0:0:0:0:
256,192,149751,1,0,0:0:0:0:
256,192,149834,1,8,0:0:0:0:
256,192,150001,1,8,0:0:0:0:
256,192,150167,1,0,0:0:0:0:
256,192,150334,1,8,0:0:0:0:
256,192,150417,1,8,0:0:0:0:
256,192,150501,1,0,0:0:0:0:
256,192,150667,1,8,0:0:0:0:
256,192,150834,1,0,0:0:0:0:
256,192,151001,1,0,0:0:0:0:
256,192,151167,1,8,0:0:0:0:
256,192,151334,1,8,0:0:0:0:
256,192,151501,1,0,0:0:0:0:
256,192,151667,1,0,0:0:0:0:
256,192,151751,1,0,0:0:0:0:
256,192,151834,1,8,0:0:0:0:
256,192,152001,1,8,0:0:0:0:
256,192,152167,1,0,0:0:0:0:
256,192,152417,1,0,0:0:0:0:
256,192,152501,1,8,0:0:0:0:
256,192,152667,1,8,0:0:0:0:
256,192,152834,1,0,0:0:0:0:
256,192,153001,1,8,0:0:0:0:
256,192,153084,1,8,0:0:0:0:
256,192,153167,1,0,0:0:0:0:
256,192,153334,1,8,0:0:0:0:
256,192,153501,1,0,0:0:0:0:
256,192,153667,1,8,0:0:0:0:
256,192,153834,1,0,0:0:0:0:
256,192,154001,1,8,0:0:0:0:
256,192,154167,1,0,0:0:0:0:
256,192,154334,1,0,0:0:0:0:
256,192,154417,1,0,0:0:0:0:
256,192,154501,1,8,0:0:0:0:
256,192,154667,1,0,0:0:0:0:
256,192,154834,1,4,0:0:0:0:
256,192,155001,1,0,0:0:0:0:
256,192,155167,1,8,0:0:0:0:
256,192,155334,1,0,0:0:0:0:
256,192,155501,1,0,0:0:0:0:
256,192,155667,1,0,0:0:0:0:
256,192,155834,1,8,0:0:0:0:
256,192,156001,1,0,0:0:0:0:
256,192,156167,1,4,0:0:0:0:
256,192,156334,1,0,0:0:0:0:
256,192,156501,1,8,0:0:0:0:
256,192,156667,1,0,0:0:0:0:
256,192,156834,1,0,0:0:0:0:
256,192,157001,1,0,0:0:0:0:
256,192,157167,1,8,0:0:0:0:
256,192,157334,1,0,0:0:0:0:
256,192,157501,1,0,0:0:0:0:
256,192,157584,1,0,0:0:0:0:
256,192,157667,1,8,0:0:0:0:
256,192,157751,1,0,0:0:0:0:
256,192,157834,1,8,0:0:0:0:
256,192,157917,1,8,0:0:0:0:
256,192,158001,1,0,0:0:0:0:
256,192,158084,1,0,0:0:0:0:
256,192,158167,1,8,0:0:0:0:
256,192,158251,1,8,0:0:0:0:
256,192,158334,1,0,0:0:0:0:
256,192,158417,1,0,0:0:0:0:
256,192,158501,1,8,0:0:0:0:
256,192,158584,1,0,0:0:0:0:
256,192,158667,1,0,0:0:0:0:
256,192,158751,1,0,0:0:0:0:
256,192,158834,1,8,0:0:0:0:
256,192,159001,1,0,0:0:0:0:
256,192,159084,1,0,0:0:0:0:
256,192,159167,1,8,0:0:0:0:
256,192,159334,1,0,0:0:0:0:
256,192,159501,1,8,0:0:0:0:
256,192,159667,1,0,0:0:0:0:
256,192,159751,1,8,0:0:0:0:
256,192,159917,1,0,0:0:0:0:
256,192,160001,1,8,0:0:0:0:
256,192,160167,1,4,0:0:0:0:
256,192,160334,1,0,0:0:0:0:
256,192,160417,1,0,0:0:0:0:
256,192,160501,1,8,0:0:0:0:
256,192,160667,1,0,0:0:0:0:
256,192,161001,1,0,0:0:0:0:
256,192,161167,1,8,0:0:0:0:
256,192,161334,1,8,0:0:0:0:
256,192,161501,1,0,0:0:0:0:
256,192,161667,1,8,0:0:0:0:
256,192,161751,1,0,0:0:0:0:
256,192,161834,1,8,0:0:0:0:
256,192,162001,1,0,0:0:0:0:
256,192,162167,1,8,0:0:0:0:
256,192,162334,1,0,0:0:0:0:
256,192,162417,1,0,0:0:0:0:
256,192,162501,1,8,0:0:0:0:
256,192,162667,1,8,0:0:0:0:
256,192,162834,1,0,0:0:0:0:
256,192,163001,1,0,0:0:0:0:
256,192,163084,1,0,0:0:0:0:
256,192,163167,1,8,0:0:0:0:
256,192,163334,1,0,0:0:0:0:
256,192,163667,1,0,0:0:0:0:
256,192,163834,1,8,0:0:0:0:
256,192,164001,1,8,0:0:0:0:
256,192,164167,1,0,0:0:0:0:
256,192,164334,1,8,0:0:0:0:
256,192,164417,1,8,0:0:0:0:
256,192,164501,1,0,0:0:0:0:
256,192,164667,1,8,0:0:0:0:
256,192,164834,1,0,0:0:0:0:
256,192,165001,1,0,0:0:0:0:
256,192,165084,1,0,0:0:0:0:
256,192,165167,1,8,0:0:0:0:
256,192,165334,1,0,0:0:0:0:
256,192,165501,1,8,0:0:0:0:
256,192,165585,1,8,0:0:0:0:
256,192,165667,1,0,0:0:0:0:
256,192,165834,1,0,0:0:0:0:
256,192,166001,1,8,0:0:0:0:
256,192,166334,1,8,0:0:0:0:
256,192,166418,1,8,0:0:0:0:
256,192,166501,1,0,0:0:0:0:
256,192,166668,1,8,0:0:0:0:
256,192,166834,1,0,0:0:0:0:
256,192,167001,1,0,0:0:0:0:
256,192,167084,1,0,0:0:0:0:
256,192,167167,1,8,0:0:0:0:
256,192,167334,1,8,0:0:0:0:
256,192,167667,1,0,0:0:0:0:
256,192,167834,1,8,0:0:0:0:
256,192,168001,1,0,0:0:0:0:
256,192,168085,1,0,0:0:0:0:
256,192,168167,1,8,0:0:0:0:
256,192,168334,1,8,0:0:0:0:
256,192,168501,1,0,0:0:0:0:
256,192,168668,1,8,0:0:0:0:
256,192,168835,1,0,0:0:0:0:
256,192,169001,5,8,0:0:0:0:
256,192,169085,1,8,0:0:0:0:
256,192,169168,1,0,0:0:0:0:
256,192,169335,1,8,0:0:0:0:
256,192,169501,1,0,0:0:0:0:
256,192,169667,1,8,0:0:0:0:
256,192,169834,1,8,0:0:0:0:
256,192,169917,1,0,0:0:0:0:
256,192,170084,1,0,0:0:0:0:
256,192,170167,1,8,0:0:0:0:
256,192,170251,1,8,0:0:0:0:
256,192,170334,1,0,0:0:0:0:
256,192,170417,1,0,0:0:0:0:
256,192,170501,1,8,0:0:0:0:
256,192,170584,1,0,0:0:0:0:
256,192,170667,1,8,0:0:0:0:
256,192,170751,1,8,0:0:0:0:
256,192,170834,1,0,0:0:0:0:
256,192,171001,1,0,0:0:0:0:
256,192,171084,1,8,0:0:0:0:
256,192,171167,1,8,0:0:0:0:
256,192,171334,1,8,0:0:0:0:
256,192,171501,1,0,0:0:0:0:
256,192,171584,1,8,0:0:0:0:
256,192,171667,1,8,0:0:0:0:
256,192,171834,1,8,0:0:0:0:
256,192,172001,1,8,0:0:0:0:
256,192,172084,1,8,0:0:0:0:
256,192,172167,1,0,0:0:0:0:
256,192,172334,1,8,0:0:0:0:
256,192,172501,1,0,0:0:0:0:
256,192,172584,1,8,0:0:0:0:
256,192,172667,1,8,0:0:0:0:
256,192,172834,1,8,0:0:0:0:
256,192,172917,1,8,0:0:0:0:
256,192,173001,1,0,0:0:0:0:
256,192,173167,1,8,0:0:0:0:
256,192,173334,1,8,0:0:0:0:
256,192,173417,1,8,0:0:0:0:
256,192,173501,1,0,0:0:0:0:
256,192,173751,1,0,0:0:0:0:
256,192,173834,1,8,0:0:0:0:
256,192,174001,1,0,0:0:0:0:
256,192,174167,1,0,0:0:0:0:
256,192,174251,1,8,0:0:0:0:
256,192,174334,1,8,0:0:0:0:
256,192,174501,1,8,0:0:0:0:
256,192,174667,1,8,0:0:0:0:
256,192,174751,1,8,0:0:0:0:
256,192,174834,1,0,0:0:0:0:
256,192,175001,1,0,0:0:0:0:
256,192,175084,1,8,0:0:0:0:
256,192,175167,1,0,0:0:0:0:
256,192,175251,1,8,0:0:0:0:
256,192,175334,1,8,0:0:0:0:
256,192,175501,1,0,0:0:0:0:
256,192,175584,1,8,0:0:0:0:
256,192,175667,1,8,0:0:0:0:
256,192,175834,1,8,0:0:0:0:
256,192,175917,1,0,0:0:0:0:
256,192,176001,1,8,0:0:0:0:
256,192,176084,1,8,0:0:0:0:
256,192,176167,1,0,0:0:0:0:
256,192,176417,1,0,0:0:0:0:
256,192,176501,1,8,0:0:0:0:
256,192,176667,1,0,0:0:0:0:
256,192,176834,1,0,0:0:0:0:
256,192,176917,1,8,0:0:0:0:
256,192,177001,1,8,0:0:0:0:
256,192,177167,1,8,0:0:0:0:
256,192,177334,1,8,0:0:0:0:
256,192,177417,1,8,0:0:0:0:
256,192,177501,1,0,0:0:0:0:
256,192,177751,1,0,0:0:0:0:
256,192,177834,1,8,0:0:0:0:
256,192,178001,1,8,0:0:0:0:
256,192,178167,1,0,0:0:0:0:
256,192,178251,1,8,0:0:0:0:
256,192,178334,1,8,0:0:0:0:
256,192,178501,1,8,0:0:0:0:
256,192,178667,1,0,0:0:0:0:
256,192,178834,1,12,0:0:0:0:
256,192,179084,1,0,0:0:0:0:
256,192,179167,1,8,0:0:0:0:
256,192,179334,1,0,0:0:0:0:
256,192,179501,1,0,0:0:0:0:
256,192,179584,1,8,0:0:0:0:
256,192,179667,1,8,0:0:0:0:
256,192,179834,1,8,0:0:0:0:
256,192,180001,1,0,0:0:0:0:
256,192,180167,1,12,0:0:0:0:
272,192,180334,1,0,0:0:0:0:
272,192,180417,1,8,0:0:0:0:
272,192,180501,1,8,0:0:0:0:
272,192,180667,1,0,0:0:0:0:
272,192,180834,1,8,0:0:0:0:
272,192,180917,1,8,0:0:0:0:
272,192,181001,1,0,0:0:0:0:
272,192,181167,1,8,0:0:0:0:
272,192,181251,1,0,0:0:0:0:
272,192,181334,1,8,0:0:0:0:
272,192,181417,1,8,0:0:0:0:
272,192,181501,1,0,0:0:0:0:
272,192,181667,1,0,0:0:0:0:
272,192,181751,1,0,0:0:0:0:
272,192,181834,1,8,0:0:0:0:
272,192,182001,1,0,0:0:0:0:
256,192,182334,1,0,0:0:0:0:
256,192,182417,1,0,0:0:0:0:
256,192,182500,1,8,0:0:0:0:
256,192,182667,1,8,0:0:0:0:
256,192,182834,1,0,0:0:0:0:
256,192,183001,1,8,0:0:0:0:
256,192,183085,1,0,0:0:0:0:
256,192,183168,1,8,0:0:0:0:
256,192,183335,1,0,0:0:0:0:
256,192,183501,1,8,0:0:0:0:
256,192,183585,1,0,0:0:0:0:
256,192,183668,1,8,0:0:0:0:
256,192,183751,1,8,0:0:0:0:
256,192,183835,1,0,0:0:0:0:
256,192,184001,1,8,0:0:0:0:
256,192,184168,1,0,0:0:0:0:
256,192,184335,1,0,0:0:0:0:
256,192,184418,1,0,0:0:0:0:
256,192,184501,1,8,0:0:0:0:
256,192,184668,1,0,0:0:0:0:
256,192,185001,1,0,0:0:0:0:
256,192,185085,1,0,0:0:0:0:
256,192,185168,1,8,0:0:0:0:
256,192,185335,1,8,0:0:0:0:
256,192,185501,1,0,0:0:0:0:
256,192,185668,1,8,0:0:0:0:
256,192,185751,1,8,0:0:0:0:
256,192,185835,1,0,0:0:0:0:
256,192,186001,1,8,0:0:0:0:
256,192,186168,1,0,0:0:0:0:
256,192,186251,1,0,0:0:0:0:
256,192,186335,1,8,0:0:0:0:
256,192,186418,1,8,0:0:0:0:
256,192,186501,1,0,0:0:0:0:
256,208,186668,1,8,0:0:0:0:
256,192,186835,1,0,0:0:0:0:
256,192,187001,1,0,0:0:0:0:
256,192,187085,1,0,0:0:0:0:
256,192,187168,1,8,0:0:0:0:
256,192,187335,1,0,0:0:0:0:
256,192,187667,1,0,0:0:0:0:
256,192,187750,1,0,0:0:0:0:
256,192,187834,1,8,0:0:0:0:
256,192,188000,1,8,0:0:0:0:
256,192,188167,1,0,0:0:0:0:
256,192,188334,1,0,0:0:0:0:
256,192,188417,1,0,0:0:0:0:
256,192,188500,1,8,0:0:0:0:
256,192,188667,1,0,0:0:0:0:
256,192,189000,5,0,0:0:0:0:
256,192,189084,1,0,0:0:0:0:
256,192,189167,1,8,0:0:0:0:
256,192,189334,1,8,0:0:0:0:
256,192,189501,5,0,0:0:0:0:
256,192,189584,1,0,0:0:0:0:
256,192,189667,1,0,0:0:0:0:
256,192,189751,1,0,0:0:0:0:
256,192,189834,1,8,0:0:0:0:
256,192,190001,1,0,0:0:0:0:
256,192,190167,1,8,0:0:0:0:
256,192,190251,1,8,0:0:0:0:
256,192,190334,1,8,0:0:0:0:
256,192,190417,1,8,0:0:0:0:
256,192,190501,1,0,0:0:0:0:
256,192,190667,1,0,0:0:0:0:
256,192,190834,5,12,0:0:0:0:
256,192,191001,1,8,0:0:0:0:
256,192,191084,1,0,0:0:0:0:
256,192,191167,1,8,0:0:0:0:
256,192,191334,1,0,0:0:0:0:
256,192,191501,1,0,0:0:0:0:
256,192,191667,1,0,0:0:0:0:
256,192,191751,1,8,0:0:0:0:
256,192,191917,1,8,0:0:0:0:
256,192,192001,1,0,0:0:0:0:
256,192,192167,1,4,0:0:0:0:
256,192,192417,1,0,0:0:0:0:
256,192,192501,1,8,0:0:0:0:
256,192,192667,1,0,0:0:0:0:
256,192,192834,1,8,0:0:0:0:
256,192,193001,1,0,0:0:0:0:
256,192,193084,1,0,0:0:0:0:
256,192,193167,1,8,0:0:0:0:
256,192,193334,1,0,0:0:0:0:
256,192,193501,1,8,0:0:0:0:
256,192,193667,1,0,0:0:0:0:
256,192,193751,1,0,0:0:0:0:
256,192,193834,1,8,0:0:0:0:
256,192,193917,1,0,0:0:0:0:
256,192,194001,1,0,0:0:0:0:
256,192,194084,1,0,0:0:0:0:
256,192,194167,1,8,0:0:0:0:
256,192,194334,1,0,0:0:0:0:
256,192,194501,1,8,0:0:0:0:
256,192,194667,1,0,0:0:0:0:
256,192,194751,1,0,0:0:0:0:
256,192,194834,1,8,0:0:0:0:
256,192,195001,1,8,0:0:0:0:
256,192,195167,1,8,0:0:0:0:
256,192,195251,1,0,0:0:0:0:
256,192,195334,1,8,0:0:0:0:
256,192,195501,1,0,0:0:0:0:
256,192,195584,1,0,0:0:0:0:
256,192,195667,1,8,0:0:0:0:
256,192,195751,1,8,0:0:0:0:
256,192,195834,1,8,0:0:0:0:
256,192,195917,1,0,0:0:0:0:
256,192,196001,1,8,0:0:0:0:
256,192,196084,1,8,0:0:0:0:
256,192,196167,1,0,0:0:0:0:
256,192,196334,1,0,0:0:0:0:
256,192,196501,1,0,0:0:0:0:
256,192,196584,1,0,0:0:0:0:
256,192,196667,1,8,0:0:0:0:
256,192,196834,1,8,0:0:0:0:
256,192,196917,1,8,0:0:0:0:
256,192,197001,1,0,0:0:0:0:
256,192,197167,1,0,0:0:0:0:
256,192,197251,1,8,0:0:0:0:
256,192,197334,1,8,0:0:0:0:
256,192,197501,1,0,0:0:0:0:
256,192,197834,1,0,0:0:0:0:
256,192,198001,1,0,0:0:0:0:
256,192,198167,1,8,0:0:0:0:
256,192,198501,1,0,0:0:0:0:
256,192,198667,1,8,0:0:0:0:
256,192,198834,1,0,0:0:0:0:
256,192,199167,1,0,0:0:0:0:
256,192,199500,1,8,0:0:0:0:
256,192,199834,1,8,0:0:0:0:
256,192,200167,1,0,0:0:0:0:
256,192,200334,1,0,0:0:0:0:
256,192,200501,1,8,0:0:0:0:
256,192,200667,1,0,0:0:0:0:
256,192,200751,1,0,0:0:0:0:
256,192,200834,1,8,0:0:0:0:
256,192,201000,1,0,0:0:0:0:
256,192,201167,1,8,0:0:0:0:
256,192,201334,1,0,0:0:0:0:
256,192,201417,1,0,0:0:0:0:
256,192,201501,1,0,0:0:0:0:
256,192,201667,1,0,0:0:0:0:
256,192,201751,1,8,0:0:0:0:
256,192,201834,1,8,0:0:0:0:
256,192,202167,1,0,0:0:0:0:
256,192,202334,1,8,0:0:0:0:
256,192,202667,1,8,0:0:0:0:
256,192,202834,1,4,0:0:0:0:
256,192,203001,1,0,0:0:0:0:
256,192,203084,1,0,0:0:0:0:
256,192,203168,1,8,0:0:0:0:
256,192,203334,1,0,0:0:0:0:
256,192,203667,1,8,0:0:0:0:
256,192,203834,1,8,0:0:0:0:
256,192,204000,1,0,0:0:0:0:
256,192,204167,1,8,0:0:0:0:
256,192,204501,1,0,0:0:0:0:
256,192,204667,1,8,0:0:0:0:
256,192,204834,1,0,0:0:0:0:
256,192,205001,1,0,0:0:0:0:
256,192,205084,1,0,0:0:0:0:
256,192,205167,1,8,0:0:0:0:
256,192,205334,1,0,0:0:0:0:
256,192,205501,1,8,0:0:0:0:
256,192,205834,1,0,0:0:0:0:
256,192,206001,1,0,0:0:0:0:
256,192,206167,1,8,0:0:0:0:
256,192,206334,1,8,0:0:0:0:
256,192,206501,1,0,0:0:0:0:
256,192,206667,1,8,0:0:0:0:
256,192,206834,1,0,0:0:0:0:
256,192,207167,1,0,0:0:0:0:
256,192,207251,1,0,0:0:0:0:
256,192,207501,1,8,0:0:0:0:
256,192,207667,1,0,0:0:0:0:
256,192,207834,1,0,0:0:0:0:
256,192,207917,1,0,0:0:0:0:
256,192,208001,1,8,0:0:0:0:
256,192,208167,1,8,0:0:0:0:
256,192,208334,1,0,0:0:0:0:
256,192,208501,1,8,0:0:0:0:
256,192,208667,1,0,0:0:0:0:
256,192,208834,1,0,0:0:0:0:
256,192,209000,1,0,0:0:0:0:
256,192,209167,1,8,0:0:0:0:
256,192,209334,1,0,0:0:0:0:
256,192,209501,1,0,0:0:0:0:
256,192,209584,1,8,0:0:0:0:
256,192,209667,1,8,0:0:0:0:
256,192,209751,1,0,0:0:0:0:
256,192,209834,1,8,0:0:0:0:
256,192,210001,1,0,0:0:0:0:
256,192,210167,1,0,0:0:0:0:
256,192,210251,1,0,0:0:0:0:
256,192,210334,1,8,0:0:0:0:
256,192,210501,1,8,0:0:0:0:
256,192,210667,1,0,0:0:0:0:
256,192,210834,1,0,0:0:0:0:
256,192,210917,1,0,0:0:0:0:
256,192,211001,1,8,0:0:0:0:
256,192,211084,1,0,0:0:0:0:
256,192,211167,1,0,0:0:0:0:
256,192,211251,1,0,0:0:0:0:
256,192,211334,1,8,0:0:0:0:
256,192,211417,1,0,0:0:0:0:
256,192,211501,1,8,0:0:0:0:
256,192,211584,1,8,0:0:0:0:
256,192,211667,1,0,0:0:0:0:
256,192,211751,1,8,0:0:0:0:
256,192,211834,1,8,0:0:0:0:
256,192,211917,1,0,0:0:0:0:
256,192,212001,1,8,0:0:0:0:
256,192,212084,1,0,0:0:0:0:
256,192,212167,1,8,0:0:0:0:
256,192,212251,1,8,0:0:0:0:
256,192,212334,1,8,0:0:0:0:
256,192,212417,1,0,0:0:0:0:
256,192,212501,1,8,0:0:0:0:
256,192,212584,1,8,0:0:0:0:
256,192,212667,1,0,0:0:0:0:
256,192,212751,1,8,0:0:0:0:
256,192,212834,1,8,0:0:0:0:
256,192,212917,1,0,0:0:0:0:
256,192,213084,1,8,0:0:0:0:
256,192,213167,1,0,0:0:0:0:
256,192,213334,1,8,0:0:0:0:
256,192,213501,1,4,0:0:0:0:
256,192,213835,1,8,0:0:0:0:
256,192,214001,1,0,0:0:0:0:
256,176,214168,1,8,0:0:0:0:
256,176,214251,1,8,0:0:0:0:
256,192,214335,1,0,0:0:0:0:
256,176,214418,1,0,0:0:0:0:
256,176,214501,1,8,0:0:0:0:
256,176,214668,1,8,0:0:0:0:
256,176,215001,1,0,0:0:0:0:
256,176,215168,1,8,0:0:0:0:
256,176,215335,1,8,0:0:0:0:
256,176,215501,1,0,0:0:0:0:
256,176,215668,1,8,0:0:0:0:
256,176,215751,1,0,0:0:0:0:
256,176,215835,1,8,0:0:0:0:
256,176,216001,1,8,0:0:0:0:
256,176,216168,1,0,0:0:0:0:
256,176,216501,1,8,0:0:0:0:
256,176,216668,1,0,0:0:0:0:
256,176,216835,1,0,0:0:0:0:
256,176,216918,1,8,0:0:0:0:
256,176,217001,1,0,0:0:0:0:
256,176,217085,1,0,0:0:0:0:
256,176,217167,1,8,0:0:0:0:
256,176,217335,1,8,0:0:0:0:
256,176,217501,1,0,0:0:0:0:
256,176,217668,1,0,0:0:0:0:
256,176,217751,1,0,0:0:0:0:
256,176,217835,1,8,0:0:0:0:
256,176,218001,1,0,0:0:0:0:
256,176,218167,1,0,0:0:0:0:
256,176,218251,1,8,0:0:0:0:
256,176,218334,1,0,0:0:0:0:
256,176,218418,1,0,0:0:0:0:
256,176,218501,1,8,0:0:0:0:
256,176,218668,1,8,0:0:0:0:
256,176,218835,1,0,0:0:0:0:
256,176,219168,1,8,0:0:0:0:
256,176,219335,1,0,0:0:0:0:
256,176,219501,1,8,0:0:0:0:
256,176,219584,1,0,0:0:0:0:
256,176,219668,1,8,0:0:0:0:
256,176,219751,1,8,0:0:0:0:
256,176,219835,1,0,0:0:0:0:
256,176,220001,1,8,0:0:0:0:
256,176,220168,1,0,0:0:0:0:
256,176,220335,1,8,0:0:0:0:
256,176,220418,1,8,0:0:0:0:
256,176,220501,1,0,0:0:0:0:
256,176,220668,1,8,0:0:0:0:
256,176,220835,1,0,0:0:0:0:
256,176,221001,1,0,0:0:0:0:
256,176,221085,1,0,0:0:0:0:
256,176,221168,1,8,0:0:0:0:
256,176,221335,1,8,0:0:0:0:
256,192,221501,1,0,0:0:0:0:
256,192,221835,1,8,0:0:0:0:
256,192,222001,1,8,0:0:0:0:
256,192,222168,1,0,0:0:0:0:
256,192,222334,1,8,0:0:0:0:
256,192,222501,1,8,0:0:0:0:
256,192,222668,1,0,0:0:0:0:
256,192,222834,1,8,0:0:0:0:
256,192,222918,1,8,0:0:0:0:
256,192,223001,1,8,0:0:0:0:
256,192,223084,1,8,0:0:0:0:
256,192,223167,1,0,0:0:0:0:
256,192,223335,1,0,0:0:0:0:
256,192,223501,1,8,0:0:0:0:
256,192,223668,1,0,0:0:0:0:
256,192,223751,1,8,0:0:0:0:
256,192,223918,1,0,0:0:0:0:
256,192,224001,1,8,0:0:0:0:
256,192,224167,1,4,0:0:0:0:
256,192,224501,1,8,0:0:0:0:
256,192,224667,1,0,0:0:0:0:
256,176,224834,1,8,0:0:0:0:
256,176,224917,1,8,0:0:0:0:
256,192,225001,1,0,0:0:0:0:
256,176,225084,1,0,0:0:0:0:
256,176,225167,1,8,0:0:0:0:
256,176,225334,1,8,0:0:0:0:
256,176,225667,1,0,0:0:0:0:
256,176,225834,1,8,0:0:0:0:
256,176,226001,1,8,0:0:0:0:
256,176,226167,1,0,0:0:0:0:
256,176,226334,1,8,0:0:0:0:
256,176,226417,1,0,0:0:0:0:
256,176,226501,1,8,0:0:0:0:
256,176,226667,1,8,0:0:0:0:
256,176,226834,1,0,0:0:0:0:
256,176,227167,1,8,0:0:0:0:
256,176,227334,1,0,0:0:0:0:
256,176,227501,1,0,0:0:0:0:
256,176,227584,1,8,0:0:0:0:
256,176,227667,1,0,0:0:0:0:
256,176,227751,1,0,0:0:0:0:
256,176,227833,1,8,0:0:0:0:
256,176,228001,1,8,0:0:0:0:
256,176,228167,1,0,0:0:0:0:
256,176,228334,1,0,0:0:0:0:
256,176,228417,1,0,0:0:0:0:
256,176,228501,1,8,0:0:0:0:
256,176,228667,1,0,0:0:0:0:
256,176,228833,1,0,0:0:0:0:
256,176,228917,1,8,0:0:0:0:
256,176,229000,1,0,0:0:0:0:
256,176,229084,1,0,0:0:0:0:
256,176,229167,1,8,0:0:0:0:
256,176,229334,1,8,0:0:0:0:
256,176,229501,1,0,0:0:0:0:
256,176,229834,1,8,0:0:0:0:
256,176,230001,1,0,0:0:0:0:
256,176,230167,1,8,0:0:0:0:
256,176,230250,1,0,0:0:0:0:
256,176,230334,1,8,0:0:0:0:
256,176,230417,1,8,0:0:0:0:
256,176,230501,1,0,0:0:0:0:
256,176,230667,1,8,0:0:0:0:
256,176,230834,1,0,0:0:0:0:
256,176,231001,1,8,0:0:0:0:
256,176,231084,1,8,0:0:0:0:
256,176,231167,1,0,0:0:0:0:
256,176,231334,1,8,0:0:0:0:
256,176,231501,1,0,0:0:0:0:
256,176,231667,1,0,0:0:0:0:
256,176,231751,1,0,0:0:0:0:
256,176,231834,1,8,0:0:0:0:
256,176,232001,1,8,0:0:0:0:
256,192,232167,1,0,0:0:0:0:
256,192,232501,1,8,0:0:0:0:
256,192,232667,1,0,0:0:0:0:
256,192,232834,1,0,0:0:0:0:
256,192,233001,1,0,0:0:0:0:
256,192,233167,1,8,0:0:0:0:
256,192,233500,1,0,0:0:0:0:
256,192,233834,1,0,0:0:0:0:
256,192,234167,1,0,0:0:0:0:
256,192,234334,1,0,0:0:0:0:
256,192,234417,1,0,0:0:0:0:
256,192,234501,1,8,0:0:0:0:
256,192,234667,1,0,0:0:0:0:
256,192,234834,1,4,0:0:0:0:
256,192,235167,1,0,0:0:0:0:
256,192,235501,1,8,0:0:0:0:
256,192,235834,1,0,0:0:0:0:
256,192,236001,1,8,0:0:0:0:
256,192,236334,1,8,0:0:0:0:
256,192,236667,1,0,0:0:0:0:
256,192,237000,1,8,0:0:0:0:
256,192,237084,1,8,0:0:0:0:
256,192,237167,1,0,0:0:0:0:
256,192,237334,1,0,0:0:0:0:
256,192,237501,1,8,0:0:0:0:
256,192,237834,1,0,0:0:0:0:
256,192,238001,1,0,0:0:0:0:
256,192,238167,1,8,0:0:0:0:
256,192,238334,1,8,0:0:0:0:
256,192,238501,1,0,0:0:0:0:
256,192,238667,1,8,0:0:0:0:
256,192,239000,1,0,0:0:0:0:
256,192,239167,1,8,0:0:0:0:
256,192,239334,1,0,0:0:0:0:
256,192,239667,1,8,0:0:0:0:
256,192,239751,1,8,0:0:0:0:
256,192,239834,1,0,0:0:0:0:
256,192,240001,1,8,0:0:0:0:
256,192,240167,1,0,0:0:0:0:
256,192,240501,1,0,0:0:0:0:
256,192,240834,1,0,0:0:0:0:
256,192,241001,1,8,0:0:0:0:
256,192,241167,1,8,0:0:0:0:
256,192,241334,1,0,0:0:0:0:
256,192,241667,1,0,0:0:0:0:
256,192,242001,1,0,0:0:0:0:
256,192,242334,1,8,0:0:0:0:
256,192,242417,1,8,0:0:0:0:
256,192,242501,1,0,0:0:0:0:
256,192,242667,1,0,0:0:0:0:
256,192,242834,1,8,0:0:0:0:
256,192,243001,1,0,0:0:0:0:
256,192,243167,1,8,0:0:0:0:
256,192,243334,1,8,0:0:0:0:
256,192,243501,1,0,0:0:0:0:
256,192,243667,1,8,0:0:0:0:
256,192,243834,1,0,0:0:0:0:
256,192,244001,1,0,0:0:0:0:
256,192,244167,1,0,0:0:0:0:
256,192,244251,1,8,0:0:0:0:
256,192,244334,1,0,0:0:0:0:
256,192,244501,1,8,0:0:0:0:
256,192,244667,1,8,0:0:0:0:
256,192,244751,1,8,0:0:0:0:
256,192,244834,1,8,0:0:0:0:
256,192,245001,1,0,0:0:0:0:
256,192,245084,1,8,0:0:0:0:
256,192,245251,1,8,0:0:0:0:
256,192,245334,1,0,0:0:0:0:
256,192,245501,1,0,0:0:0:0:
256,192,245834,1,0,0:0:0:0:
256,192,246167,1,8,0:0:0:0:
256,192,246501,1,0,0:0:0:0:
256,192,246667,1,8,0:0:0:0:
256,192,247001,1,8,0:0:0:0:
256,192,247334,1,0,0:0:0:0:
256,192,247667,1,8,0:0:0:0:
256,192,247751,1,8,0:0:0:0:
256,192,247834,1,0,0:0:0:0:
256,192,248001,1,0,0:0:0:0:
256,192,248167,1,8,0:0:0:0:
256,192,248501,1,0,0:0:0:0:
256,192,248667,1,8,0:0:0:0:
256,192,248834,1,8,0:0:0:0:
256,192,248917,1,8,0:0:0:0:
256,192,249001,1,0,0:0:0:0:
256,192,249167,1,0,0:0:0:0:
256,192,249334,1,8,0:0:0:0:
256,192,249667,1,0,0:0:0:0:
256,192,249834,1,8,0:0:0:0:
256,192,250001,1,0,0:0:0:0:
256,192,250334,1,8,0:0:0:0:
256,192,250417,1,8,0:0:0:0:
256,192,250501,1,0,0:0:0:0:
256,192,250667,1,0,0:0:0:0:
256,192,250834,1,8,0:0:0:0:
256,192,251167,1,0,0:0:0:0:
256,192,251501,1,8,0:0:0:0:
256,192,251834,1,0,0:0:0:0:
256,192,252001,1,8,0:0:0:0:
256,192,252334,1,0,0:0:0:0:
256,192,252667,1,0,0:0:0:0:
256,192,253001,1,0,0:0:0:0:
256,192,253084,1,8,0:0:0:0:
256,192,253167,1,8,0:0:0:0:
256,192,253334,1,0,0:0:0:0:
256,192,253501,1,8,0:0:0:0:
256,192,253834,1,8,0:0:0:0:
256,192,254001,1,8,0:0:0:0:
256,192,254167,1,0,0:0:0:0:
256,192,254501,1,0,0:0:0:0:
256,192,254834,1,0,0:0:0:0:
256,192,255001,1,8,0:0:0:0:
256,192,255167,1,8,0:0:0:0:
256,192,255334,1,0,0:0:0:0:
256,192,255501,1,8,0:0:0:0:
256,192,255834,1,0,0:0:0:0:
256,192,255917,1,0,0:0:0:0:
256,192,256001,1,8,0:0:0:0:
256,192,256167,1,0,0:0:0:0:
256,192,256501,1,0,0:0:0:0:
256,192,256667,1,8,0:0:0:0:
256,192,257001,1,8,0:0:0:0:
256,192,257334,1,0,0:0:0:0:
256,192,257501,1,8,0:0:0:0:
256,192,257667,1,0,0:0:0:0:
256,192,258001,1,8,0:0:0:0:
256,192,258334,1,8,0:0:0:0:
256,192,258668,1,0,0:0:0:0:
256,192,258834,1,8,0:0:0:0:
256,192,259001,1,0,0:0:0:0:
256,192,259334,1,8,0:0:0:0:
256,192,259667,1,8,0:0:0:0:
256,192,260000,1,0,0:0:0:0:
256,192,260167,1,8,0:0:0:0:
256,192,260334,1,0,0:0:0:0:
256,192,260667,1,8,0:0:0:0:
256,192,261001,1,8,0:0:0:0:
256,192,261334,1,0,0:0:0:0:
256,192,261501,1,8,0:0:0:0:
256,192,261667,1,0,0:0:0:0:
256,192,262001,1,8,0:0:0:0:
256,192,262334,1,8,0:0:0:0:
256,192,262667,1,0,0:0:0:0:
256,192,262834,1,8,0:0:0:0:
256,192,263001,1,0,0:0:0:0:
256,192,263334,1,8,0:0:0:0:
256,192,263667,1,8,0:0:0:0:
256,192,264001,1,0,0:0:0:0:
256,192,264167,1,4,0:0:0:0:
256,192,265501,1,8,0:0:0:0:
256,192,265584,1,0,0:0:0:0:
256,192,265667,1,8,0:0:0:0:
256,192,265751,1,8,0:0:0:0:
256,192,265835,1,0,0:0:0:0:
256,192,265917,1,8,0:0:0:0:
256,192,266001,1,0,0:0:0:0:
256,192,266167,1,8,0:0:0:0:
256,192,266223,1,0,0:0:0:0:
256,192,266279,1,0,0:0:0:0:
240,192,266334,1,8,0:0:0:0:
256,192,266501,1,0,0:0:0:0:
240,192,266556,1,8,0:0:0:0:
256,192,266612,1,8,0:0:0:0:
240,192,266667,1,0,0:0:0:0:
256,192,266834,1,4,0:0:0:0:
256,192,267168,1,8,0:0:0:0:
256,192,267334,1,0,0:0:0:0:
256,176,267501,1,8,0:0:0:0:
256,176,267584,1,8,0:0:0:0:
256,192,267668,1,0,0:0:0:0:
256,176,267751,1,0,0:0:0:0:
256,176,267834,1,8,0:0:0:0:
256,176,268001,1,8,0:0:0:0:
256,176,268334,1,0,0:0:0:0:
256,176,268501,1,8,0:0:0:0:
256,176,268668,1,8,0:0:0:0:
256,176,268834,1,0,0:0:0:0:
256,176,269001,1,8,0:0:0:0:
256,176,269084,1,0,0:0:0:0:
256,176,269168,1,8,0:0:0:0:
256,176,269334,1,8,0:0:0:0:
256,176,269501,1,0,0:0:0:0:
256,176,269834,1,8,0:0:0:0:
256,176,270001,1,0,0:0:0:0:
256,176,270168,1,0,0:0:0:0:
256,176,270251,1,8,0:0:0:0:
256,176,270334,1,0,0:0:0:0:
256,176,270418,1,0,0:0:0:0:
256,176,270500,1,8,0:0:0:0:
256,176,270668,1,8,0:0:0:0:
256,176,270834,1,0,0:0:0:0:
256,176,271001,1,0,0:0:0:0:
256,176,271084,1,0,0:0:0:0:
256,176,271168,1,8,0:0:0:0:
256,176,271334,1,0,0:0:0:0:
256,176,271500,1,0,0:0:0:0:
256,176,271584,1,8,0:0:0:0:
256,176,271667,1,0,0:0:0:0:
256,176,271751,1,0,0:0:0:0:
256,176,271834,1,8,0:0:0:0:
256,176,272001,1,8,0:0:0:0:
256,176,272168,1,0,0:0:0:0:
256,176,272501,1,8,0:0:0:0:
256,176,272668,1,0,0:0:0:0:
256,176,272834,1,8,0:0:0:0:
256,176,272917,1,0,0:0:0:0:
256,176,273001,1,8,0:0:0:0:
256,176,273084,1,8,0:0:0:0:
256,176,273168,1,0,0:0:0:0:
256,176,273334,1,8,0:0:0:0:
256,176,273501,1,0,0:0:0:0:
256,176,273668,1,8,0:0:0:0:
256,176,273751,1,8,0:0:0:0:
256,176,273834,1,0,0:0:0:0:
256,176,274001,1,8,0:0:0:0:
256,176,274168,1,0,0:0:0:0:
256,176,274334,1,0,0:0:0:0:
256,176,274418,1,0,0:0:0:0:
256,176,274501,1,8,0:0:0:0:
256,176,274668,1,8,0:0:0:0:
256,192,274834,1,0,0:0:0:0:
256,192,275168,1,8,0:0:0:0:
256,192,275334,1,8,0:0:0:0:
256,192,275501,1,0,0:0:0:0:
256,192,275667,1,8,0:0:0:0:
256,192,275834,1,8,0:0:0:0:
256,192,276001,1,0,0:0:0:0:
256,192,276167,1,8,0:0:0:0:
256,192,276251,1,8,0:0:0:0:
256,192,276334,1,8,0:0:0:0:
256,192,276417,1,8,0:0:0:0:
256,192,276500,1,0,0:0:0:0:
256,192,276668,1,0,0:0:0:0:
256,192,276834,1,8,0:0:0:0:
256,192,277001,1,0,0:0:0:0:
256,192,277084,1,8,0:0:0:0:
256,192,277251,1,0,0:0:0:0:
256,192,277334,1,8,0:0:0:0:
256,192,277500,1,4,0:0:0:0:
256,192,277834,1,8,0:0:0:0:
256,192,278000,1,0,0:0:0:0:
256,176,278167,1,8,0:0:0:0:
256,176,278250,1,8,0:0:0:0:
256,192,278334,1,0,0:0:0:0:
256,176,278417,1,0,0:0:0:0:
256,176,278500,1,8,0:0:0:0:
256,176,278667,1,8,0:0:0:0:
256,176,279000,1,0,0:0:0:0:
256,176,279167,1,8,0:0:0:0:
256,176,279334,1,8,0:0:0:0:
256,176,279500,1,0,0:0:0:0:
256,176,279667,1,8,0:0:0:0:
256,176,279750,1,0,0:0:0:0:
256,176,279834,1,8,0:0:0:0:
256,176,280000,1,8,0:0:0:0:
256,176,280167,1,0,0:0:0:0:
256,176,280500,1,8,0:0:0:0:
256,176,280667,1,0,0:0:0:0:
256,176,280834,1,0,0:0:0:0:
256,176,280917,1,8,0:0:0:0:
256,176,281000,1,0,0:0:0:0:
256,176,281084,1,0,0:0:0:0:
256,176,281166,1,8,0:0:0:0:
256,176,281334,1,8,0:0:0:0:
256,176,281500,1,0,0:0:0:0:
256,176,281667,1,0,0:0:0:0:
256,176,281750,1,0,0:0:0:0:
256,176,281834,1,8,0:0:0:0:
256,176,282000,1,0,0:0:0:0:
256,176,282166,1,0,0:0:0:0:
256,176,282250,1,8,0:0:0:0:
256,176,282333,1,0,0:0:0:0:
256,176,282417,1,0,0:0:0:0:
256,176,282500,1,8,0:0:0:0:
256,176,282667,1,8,0:0:0:0:
256,176,282834,1,0,0:0:0:0:
256,176,283167,1,8,0:0:0:0:
256,176,283334,1,0,0:0:0:0:
256,176,283500,1,8,0:0:0:0:
256,176,283583,1,0,0:0:0:0:
256,176,283667,1,8,0:0:0:0:
256,176,283750,1,8,0:0:0:0:
256,176,283834,1,0,0:0:0:0:
256,176,284000,1,8,0:0:0:0:
256,176,284167,1,0,0:0:0:0:
256,176,284334,1,8,0:0:0:0:
256,176,284417,1,8,0:0:0:0:
256,176,284500,1,0,0:0:0:0:
256,176,284667,1,8,0:0:0:0:
256,176,284834,1,0,0:0:0:0:
256,176,285000,1,0,0:0:0:0:
256,176,285084,1,0,0:0:0:0:
256,176,285167,1,8,0:0:0:0:
256,176,285334,1,8,0:0:0:0:
256,192,285500,1,0,0:0:0:0:
256,192,285834,1,8,0:0:0:0:
256,176,285917,1,0,0:0:0:0:
256,192,286000,1,0,0:0:0:0:
256,176,286084,1,0,0:0:0:0:
256,192,286167,1,8,0:0:0:0:
256,176,286251,1,8,0:0:0:0:
256,192,286334,1,8,0:0:0:0:
256,176,286417,1,0,0:0:0:0:
256,192,286500,1,8,0:0:0:0:
256,176,286667,1,0,0:0:0:0:
256,192,286834,1,8,0:0:0:0:
256,192,287167,1,0,0:0:0:0:
256,192,287500,1,0,0:0:0:0:
256,192,287667,1,0,0:0:0:0:
256,192,287750,1,0,0:0:0:0:
256,192,287834,1,8,0:0:0:0:
256,192,288000,1,0,0:0:0:0:
256,192,288167,1,4,0:0:0:0:
256,192,288501,1,0,0:0:0:0:
256,192,288667,1,8,0:0:0:0:
256,192,288834,1,8,0:0:0:0:
256,192,289001,1,0,0:0:0:0:
256,192,289167,1,8,0:0:0:0:
256,192,289334,1,8,0:0:0:0:
256,192,289501,1,0,0:0:0:0:
256,192,289834,1,8,0:0:0:0:
256,192,290167,1,0,0:0:0:0:
256,192,290334,1,8,0:0:0:0:
256,192,290501,1,8,0:0:0:0:
256,192,290667,1,0,0:0:0:0:
256,192,290834,1,8,0:0:0:0:
256,192,291167,1,0,0:0:0:0:
256,192,291334,1,8,0:0:0:0:
256,192,291501,1,8,0:0:0:0:
256,192,291667,1,0,0:0:0:0:
256,192,291834,1,8,0:0:0:0:
256,192,292001,1,0,0:0:0:0:
256,192,292167,1,8,0:0:0:0:
256,192,292501,1,0,0:0:0:0:
256,192,292667,1,8,0:0:0:0:
256,192,293167,1,8,0:0:0:0:
256,192,293500,1,4,0:0:0:0:
256,192,293667,1,8,0:0:0:0:
256,192,293834,1,8,0:0:0:0:
256,192,294001,1,0,0:0:0:0:
256,192,294167,1,8,0:0:0:0:
256,192,294334,1,0,0:0:0:0:
256,192,294500,1,0,0:0:0:0:
256,192,294584,1,0,0:0:0:0:
160,336,294667,1,8,0:0:0:0:
256,192,294834,1,4,0:0:0:0:
256,192,295001,1,8,0:0:0:0:
256,192,295167,1,0,0:0:0:0:
256,192,295334,1,0,0:0:0:0:
256,192,295417,1,0,0:0:0:0:
256,192,295501,1,8,0:0:0:0:
256,192,295667,1,0,0:0:0:0:
256,192,295834,1,8,0:0:0:0:
256,192,296001,1,0,0:0:0:0:
256,192,296167,1,8,0:0:0:0:
256,192,296251,1,0,0:0:0:0:
256,192,296334,1,8,0:0:0:0:
256,192,296417,1,8,0:0:0:0:
256,192,296501,1,8,0:0:0:0:
256,192,296584,1,0,0:0:0:0:
256,192,296667,1,8,0:0:0:0:
256,192,296751,1,0,0:0:0:0:
256,192,296834,1,8,0:0:0:0:
256,192,296917,1,0,0:0:0:0:
256,192,297001,1,8,0:0:0:0:
256,192,297084,1,8,0:0:0:0:
256,192,297167,1,0,0:0:0:0:
256,192,297251,1,0,0:0:0:0:
256,192,297334,1,8,0:0:0:0:
256,192,297417,1,0,0:0:0:0:
256,192,297501,1,8,0:0:0:0:
256,192,297834,1,0,0:0:0:0:
256,192,298167,1,0,0:0:0:0:
256,192,298250,1,8,0:0:0:0:
256,192,298417,1,0,0:0:0:0:
256,192,298500,1,8,0:0:0:0:
256,192,298667,1,8,0:0:0:0:
256,192,298834,1,4,0:0:0:0:
256,192,299167,1,0,0:0:0:0:
256,192,299334,1,8,0:0:0:0:
256,192,299667,1,8,0:0:0:0:
256,192,300001,1,8,0:0:0:0:
256,192,300334,1,0,0:0:0:0:
256,192,300667,1,0,0:0:0:0:
256,192,301001,1,0,0:0:0:0:
256,192,301501,1,0,0:0:0:0:
256,192,301834,1,0,0:0:0:0:
256,192,302001,1,8,0:0:0:0:
256,192,302334,1,0,0:0:0:0:
256,192,302501,1,8,0:0:0:0:
256,192,302667,1,0,0:0:0:0:
256,192,303001,1,0,0:0:0:0:
256,192,303168,1,8,0:0:0:0:
256,192,303334,1,8,0:0:0:0:
256,192,303667,1,0,0:0:0:0:
256,192,303834,1,8,0:0:0:0:
256,192,304167,1,4,0:0:0:0:
256,192,304334,1,8,0:0:0:0:
256,192,304501,1,8,0:0:0:0:
256,192,304667,1,0,0:0:0:0:
256,192,305001,1,0,0:0:0:0:
256,192,305168,1,8,0:0:0:0:
256,192,305335,1,8,0:0:0:0:
256,192,305501,1,0,0:0:0:0:
256,192,305668,1,8,0:0:0:0:
256,192,305835,1,0,0:0:0:0:
256,192,306001,1,8,0:0:0:0:
256,192,306335,1,0,0:0:0:0:
256,192,306501,1,0,0:0:0:0:
256,192,306834,1,0,0:0:0:0:
256,192,307001,1,8,0:0:0:0:
256,192,307167,1,0,0:0:0:0:
256,192,307334,1,8,0:0:0:0:
256,192,307667,1,0,0:0:0:0:
256,192,307834,1,8,0:0:0:0:
256,192,308001,1,8,0:0:0:0:
256,192,308167,1,0,0:0:0:0:
256,192,308334,1,0,0:0:0:0:
256,192,308417,1,8,0:0:0:0:
256,192,308501,1,8,0:0:0:0:
256,192,308667,1,0,0:0:0:0:
256,192,308751,1,0,0:0:0:0:
256,192,308834,1,8,0:0:0:0:
256,192,308917,1,8,0:0:0:0:
256,192,309001,1,0,0:0:0:0:
256,192,309084,1,8,0:0:0:0:
256,192,309167,1,0,0:0:0:0:
256,192,309223,1,0,0:0:0:0:
256,192,309279,1,0,0:0:0:0:
256,192,309334,1,0,0:0:0:0:
256,192,309390,1,0,0:0:0:0:
256,192,309445,1,0,0:0:0:0:
256,192,309501,1,12,0:0:0:0:
256,192,309751,1,8,0:0:0:0:
256,192,309834,1,8,0:0:0:0:
256,192,310001,1,0,0:0:0:0:
256,192,310168,1,8,0:0:0:0:
256,192,310251,1,8,0:0:0:0:
256,192,310334,1,0,0:0:0:0:
256,192,310501,1,8,0:0:0:0:
256,192,310668,1,8,0:0:0:0:
256,192,310834,1,0,0:0:0:0:
256,192,311001,1,0,0:0:0:0:
256,192,311084,1,8,0:0:0:0:
256,192,311168,1,8,0:0:0:0:
256,192,311334,1,0,0:0:0:0:
256,192,311501,1,8,0:0:0:0:
256,192,311584,1,8,0:0:0:0:
256,192,311668,1,0,0:0:0:0:
256,192,311834,1,8,0:0:0:0:
256,192,312001,1,0,0:0:0:0:
240,192,312168,1,8,0:0:0:0:
240,192,312334,1,0,0:0:0:0:
240,192,312418,1,8,0:0:0:0:
240,192,312501,1,8,0:0:0:0:
240,192,312668,1,8,0:0:0:0:
240,192,313001,1,8,0:0:0:0:
240,192,313168,1,0,0:0:0:0:
240,192,313334,1,8,0:0:0:0:
240,192,313501,1,8,0:0:0:0:
240,192,313668,1,0,0:0:0:0:
240,192,313751,1,8,0:0:0:0:
240,192,313834,1,8,0:0:0:0:
240,192,314001,1,0,0:0:0:0:
240,192,314168,1,8,0:0:0:0:
240,192,314251,1,8,0:0:0:0:
240,192,314334,1,0,0:0:0:0:
240,192,314501,1,8,0:0:0:0:
240,192,314668,1,8,0:0:0:0:
240,192,314834,1,4,0:0:0:0:
256,192,315084,1,8,0:0:0:0:
256,192,315167,1,8,0:0:0:0:
256,192,315334,1,0,0:0:0:0:
256,192,315501,1,8,0:0:0:0:
256,192,315584,1,8,0:0:0:0:
256,192,315667,1,0,0:0:0:0:
256,192,315834,1,8,0:0:0:0:
256,192,316001,1,8,0:0:0:0:
256,192,316167,1,0,0:0:0:0:
256,192,316334,1,0,0:0:0:0:
256,192,316417,1,8,0:0:0:0:
256,192,316501,1,8,0:0:0:0:
256,192,316667,1,0,0:0:0:0:
256,192,316834,1,8,0:0:0:0:
256,192,316917,1,8,0:0:0:0:
256,192,317001,1,0,0:0:0:0:
256,192,317167,1,8,0:0:0:0:
256,192,317334,1,0,0:0:0:0:
240,192,317501,1,8,0:0:0:0:
240,192,317667,1,0,0:0:0:0:
240,192,317751,1,8,0:0:0:0:
240,192,317834,1,8,0:0:0:0:
240,192,318001,1,8,0:0:0:0:
240,192,318334,1,8,0:0:0:0:
240,192,318501,1,0,0:0:0:0:
240,192,318668,1,8,0:0:0:0:
240,192,318834,1,8,0:0:0:0:
240,192,319001,1,0,0:0:0:0:
240,192,319084,1,8,0:0:0:0:
240,192,319168,1,8,0:0:0:0:
240,192,319334,1,0,0:0:0:0:
240,192,319501,1,8,0:0:0:0:
240,192,319584,1,8,0:0:0:0:
240,192,319668,1,0,0:0:0:0:
240,192,319751,1,0,0:0:0:0:
240,192,319834,1,8,0:0:0:0:
240,192,320001,1,8,0:0:0:0:
240,192,320168,1,4,0:0:0:0:
256,192,320418,1,8,0:0:0:0:
256,192,320501,1,8,0:0:0:0:
256,192,320668,1,0,0:0:0:0:
256,192,320835,1,8,0:0:0:0:
256,192,320918,1,8,0:0:0:0:
256,192,321001,1,0,0:0:0:0:
240,192,321084,1,0,0:0:0:0:
256,192,321168,1,8,0:0:0:0:
256,192,321335,1,8,0:0:0:0:
256,192,321501,1,0,0:0:0:0:
256,192,321668,1,0,0:0:0:0:
256,192,321751,1,8,0:0:0:0:
256,192,321835,1,8,0:0:0:0:
256,192,322001,1,0,0:0:0:0:
256,192,322168,1,8,0:0:0:0:
256,192,322251,1,8,0:0:0:0:
256,192,322335,1,0,0:0:0:0:
240,192,322418,1,0,0:0:0:0:
256,192,322501,1,8,0:0:0:0:
256,192,322668,1,0,0:0:0:0:
240,192,322835,1,8,0:0:0:0:
240,192,323001,1,0,0:0:0:0:
240,192,323085,1,8,0:0:0:0:
240,192,323168,1,8,0:0:0:0:
240,192,323251,1,0,0:0:0:0:
240,192,323335,1,8,0:0:0:0:
240,192,323668,1,8,0:0:0:0:
240,192,323835,1,0,0:0:0:0:
240,192,324002,1,8,0:0:0:0:
240,192,324168,1,8,0:0:0:0:
240,192,324334,1,0,0:0:0:0:
240,192,324418,1,8,0:0:0:0:
240,192,324501,1,8,0:0:0:0:
240,192,324668,1,0,0:0:0:0:
240,192,324834,1,8,0:0:0:0:
240,192,324918,1,8,0:0:0:0:
240,192,325001,1,0,0:0:0:0:
240,192,325084,1,0,0:0:0:0:
240,192,325168,1,8,0:0:0:0:
240,192,325334,1,8,0:0:0:0:
240,192,325501,1,4,0:0:0:0:
256,192,325751,1,8,0:0:0:0:
256,192,325834,1,8,0:0:0:0:
256,192,326001,1,0,0:0:0:0:
256,192,326168,1,8,0:0:0:0:
256,192,326251,1,8,0:0:0:0:
256,192,326334,1,0,0:0:0:0:
240,192,326417,1,0,0:0:0:0:
256,192,326501,1,8,0:0:0:0:
256,192,326668,1,8,0:0:0:0:
256,192,326834,1,4,0:0:0:0:
256,192,327001,1,0,0:0:0:0:
256,192,327084,1,8,0:0:0:0:
256,192,327168,1,8,0:0:0:0:
256,192,327334,1,0,0:0:0:0:
256,192,327501,1,8,0:0:0:0:
256,192,327584,1,8,0:0:0:0:
256,192,327668,1,0,0:0:0:0:
240,192,327751,1,0,0:0:0:0:
256,192,327834,1,8,0:0:0:0:
256,192,328001,1,8,0:0:0:0:
240,192,328168,1,4,0:0:0:0:
256,192,328668,1,4,0:0:0:0:
256,192,328834,1,4,0:0:0:0:
256,192,329168,1,4,0:0:0:0:
256,192,329501,1,0,0:0:0:0:
256,192,329668,1,8,0:0:0:0:
256,192,329751,1,8,0:0:0:0:
256,192,329834,1,8,0:0:0:0:
256,192,330001,1,0,0:0:0:0:
256,192,330168,1,8,0:0:0:0:
256,192,330251,1,0,0:0:0:0:
256,192,330334,1,0,0:0:0:0:
256,192,330390,1,0,0:0:0:0:
256,192,330445,1,0,0:0:0:0:
256,192,330501,1,8,0:0:0:0:
256,192,330584,1,0,0:0:0:0:
256,192,330668,1,8,0:0:0:0:
256,192,330723,1,8,0:0:0:0:
256,192,330779,1,8,0:0:0:0:
256,192,330834,1,0,0:0:0:0:
